<?xml version="1.0" standalone="no"?>
<!DOCTYPE svg PUBLIC "-//W3C//DTD SVG 1.1//EN" "http://www.w3.org/Graphics/SVG/1.1/DTD/svg11.dtd" >
<svg xmlns="http://www.w3.org/2000/svg">
<metadata>Generated by IcoMoon</metadata>
<defs>
<font id="icomoon" horiz-adv-x="1024">
<font-face units-per-em="1024" ascent="960" descent="-64" />
<missing-glyph horiz-adv-x="1024" />
<glyph unicode="&#x20;" horiz-adv-x="512" d="" />
<glyph unicode="&#xe900;" glyph-name="cart" d="M702.946 562.568c-3.142 3.664-7.108 6.586-11.505 8.573-4.437 1.988-9.246 2.982-14.105 2.931-7.951 0.1-15.691-2.62-21.865-7.74-6.114-5.070-10.25-12.178-11.605-20.078-6.275-30.017-22.749-57.043-46.592-76.449-23.893-19.346-53.7-29.907-84.39-29.907-30.75 0-60.547 10.561-84.39 29.907-23.893 19.406-40.317 46.431-46.642 76.449-1.305 7.901-5.491 15.009-11.555 20.078-6.164 5.13-13.904 7.851-21.906 7.74-4.869 0.050-9.678-0.944-14.065-2.931-4.397-1.988-8.373-4.909-11.555-8.573s-5.542-7.951-6.847-12.649c-1.365-4.598-1.677-9.517-1.004-14.326 9.146-45.548 33.782-86.488 69.702-115.873 35.971-29.435 80.936-45.488 127.418-45.437 46.682-0.472 92.14 15.43 128.422 44.865s61.119 70.636 70.325 116.445c0.733 4.809 0.422 9.728-0.944 14.326-1.365 4.708-3.664 8.995-6.897 12.649zM883.13 615.595c-1.155 25.831-12.188 50.296-30.901 68.186-18.663 17.88-43.62 27.869-69.501 27.819h-69.963v24.777c0 53.228-21.123 104.317-58.77 142.015-37.687 37.647-88.777 58.77-142.015 58.77-53.218 0-104.307-21.123-142.015-58.77-37.647-37.697-58.77-88.787-58.77-142.015v-24.787h-69.913c-25.881 0.050-50.778-9.939-69.491-27.819s-29.806-42.355-30.901-68.186l-27.126-576.934c-0.632-13.593 1.466-27.186 6.164-39.946s12.027-24.476 21.444-34.304c9.367-9.828 20.711-17.679 33.2-23.060 12.509-5.381 25.992-8.102 39.585-8.102h595.667c13.633 0 27.076 2.721 39.625 8.102 12.549 5.391 23.843 13.232 33.2 23.060 9.417 9.828 16.685 21.544 21.444 34.304s6.857 26.353 6.114 39.946l-27.076 576.944zM378.137 736.376c0 35.509 14.105 69.542 39.203 94.64s59.141 39.213 94.64 39.213c35.509 0 69.552-14.115 94.65-39.213s39.213-59.131 39.213-94.64v-24.787h-267.706v24.787zM841.246 22.026c-1.576-4.287-4.026-8.152-7.168-11.455-3.092-3.293-6.857-5.903-11.033-7.69-4.186-1.777-8.684-2.721-13.222-2.721h-595.667c-4.488 0-8.995 0.944-13.181 2.721-4.176 1.777-7.941 4.397-11.083 7.69-3.142 3.303-5.542 7.168-7.108 11.455-1.566 4.186-2.299 8.784-2.088 13.282l27.136 575.578c0 8.885 3.504 17.358 9.778 23.632s14.798 9.828 23.683 9.828l541.435 1.355c8.895 0 17.358-3.554 23.632-9.828s9.828-14.738 9.828-23.632l27.096-576.944c0.211-4.488-0.422-9.085-2.038-13.272z" />
<glyph unicode="&#xe901;" glyph-name="close-circle" d="M512 937.161c-276.791 0-501.961-225.17-501.961-501.961s225.17-501.961 501.961-501.961 501.961 225.17 501.961 501.961-225.17 501.961-501.961 501.961zM512 3.283c-238.17 0-431.917 193.757-431.917 431.917s193.747 431.917 431.917 431.917 431.917-193.747 431.917-431.917-193.747-431.917-431.917-431.917zM668.913 592.103c-13.683 13.683-35.84 13.683-49.533 0l-107.379-107.379-107.379 107.379c-13.683 13.683-35.84 13.683-49.533 0-13.673-13.673-13.673-35.84 0-49.523l107.389-107.379-107.389-107.389c-13.673-13.683-13.673-35.84 0-49.523 6.847-6.847 15.782-10.26 24.767-10.26s17.92 3.413 24.767 10.26l107.379 107.389 107.379-107.379c6.847-6.847 15.782-10.26 24.767-10.26s17.92 3.413 24.767 10.26c13.673 13.673 13.673 35.84 0 49.523l-107.389 107.379 107.389 107.389c13.673 13.683 13.673 35.84 0 49.513z" />
<glyph unicode="&#xe902;" glyph-name="heart-fill, wishlist-fill" d="M734.84 886.965c-87.251 0-170.586-42.496-222.84-113.704-53.087 72.262-134.315 113.704-222.84 113.704-153.921 0-279.12-127.277-279.12-283.748 0-153.48 62.544-299.41 180.836-421.988 99.358-102.962 218.283-168.428 289.953-193.235 8.232-2.941 19.255-4.558 31.172-4.558s22.94 1.616 31.132 4.558c71.72 24.807 190.635 90.273 290.003 193.215 118.282 122.599 180.826 268.529 180.826 422.008 0 156.471-125.199 283.748-279.12 283.748z" />
<glyph unicode="&#xe903;" glyph-name="search" d="M488.649-20.068c-263.931 0-478.61 214.679-478.61 478.62 0 263.931 214.679 478.61 478.61 478.61 263.941 0 478.62-214.679 478.62-478.61 0-263.941-214.679-478.62-478.62-478.62zM488.649 867.117c-225.3 0-408.566-183.266-408.566-408.576s183.266-408.576 408.566-408.576c225.31 0 408.576 183.266 408.576 408.576s-183.266 408.576-408.576 408.576zM978.944-66.761c-8.985 0-17.92 3.423-24.767 10.25l-93.395 93.395c-13.663 13.673-13.663 35.84 0 49.523 13.683 13.683 35.84 13.683 49.533 0l93.395-93.385c13.673-13.683 13.673-35.84 0-49.533-6.847-6.827-15.792-10.25-24.767-10.25z" />
<glyph unicode="&#xe904;" glyph-name="whatsapp" d="M741.958 335.521c-12.479 6.264-73.859 36.332-85.353 40.528-11.384 4.136-19.777 6.204-28.16-6.264-8.333-12.469-32.306-40.468-39.494-48.74-7.299-8.282-14.647-9.316-27.126-3.112-12.469 6.264-52.716 19.336-100.382 61.701-37.135 33.009-62.253 73.638-69.552 86.167-7.248 12.419-0.763 19.115 5.501 25.329 5.612 5.552 12.469 14.537 18.733 21.785 6.325 7.188 8.393 12.358 12.639 20.701 4.136 8.282 2.068 15.581-1.034 21.785-3.213 6.214-28.17 67.373-38.571 92.321-10.19 24.184-20.48 20.912-28.1 21.293l-23.974 0.432c-8.333 0-21.845-3.102-33.27-15.581-11.384-12.469-43.691-42.486-43.691-103.705 0-61.169 44.775-120.31 50.929-128.602 6.315-8.272 88.064-133.823 213.394-187.683 29.796-12.75 53.107-20.43 71.138-26.142 30.007-9.477 57.183-8.162 78.707-4.959 24.024 3.554 73.899 30.067 84.36 59.101 10.461 29.084 10.461 53.981 7.248 59.161-3.092 5.23-11.425 8.282-23.944 14.487zM867.72 791.241c-94.389 94.047-219.879 145.87-353.651 145.92-275.486 0-499.722-223.202-499.832-497.383-0.060-87.743 22.93-173.317 66.721-248.752l-70.917-257.787 264.985 69.18c73.035-39.655 155.437-60.516 239.054-60.567 275.546 0 499.782 223.192 499.893 497.443 0.1 132.939-51.913 257.948-146.251 351.945zM513.958 25.891c-88.998 0.060-156.21 24.998-226.685 66.61l-157.244-41.060 41.994 152.606c-46.020 72.885-73.417 142.597-73.367 235.681 0.050 227.94 186.438 413.455 415.624 413.455 229.747-0.080 415.423-185.294 415.302-413.776-0.1-228.061-186.639-413.515-415.624-413.515z" />
<glyph unicode="&#xe905;" glyph-name="chevron-down, chevron-bottom" d="M511.88 140.87c-22.438 0-44.895 8.533-62.072 25.65l-413.887 412.752c-34.475 34.304-34.475 90.012-0.221 124.426 34.234 34.244 89.901 34.525 124.376 0.181l351.814-350.851 352.045 350.851c34.364 34.354 90.022 34.123 124.376-0.231 34.244-34.414 34.244-90.072-0.221-124.376l-414.118-412.752c-17.197-17.117-39.635-25.65-62.093-25.65z" />
<glyph unicode="&#xe906;" glyph-name="chevron-left" d="M217.67 435.32c0 22.438 8.543 44.895 25.66 62.072l412.742 413.887c34.304 34.475 90.022 34.475 124.436 0.221 34.244-34.234 34.525-89.901 0.181-124.376l-350.871-351.804 350.851-352.045c34.354-34.364 34.123-90.022-0.231-124.376-34.414-34.244-90.072-34.244-124.376 0.221l-412.742 414.118c-17.117 17.187-25.65 39.625-25.65 62.083z" />
<glyph unicode="&#xe907;" glyph-name="chevron-right" d="M806.33 435.080c0-22.438-8.543-44.895-25.66-62.072l-412.742-413.887c-34.304-34.475-90.022-34.475-124.436-0.221-34.244 34.234-34.525 89.901-0.181 124.376l350.851 351.814-350.84 352.045c-34.354 34.364-34.123 90.022 0.231 124.376 34.414 34.244 90.072 34.244 124.376-0.221l412.742-414.118c17.127-17.197 25.66-39.635 25.66-62.093z" />
<glyph unicode="&#xe908;" glyph-name="chevron-top" d="M512.12 729.53c22.438 0 44.895-8.533 62.072-25.65l413.897-412.752c34.475-34.304 34.475-90.012 0.221-124.426-34.234-34.244-89.901-34.525-124.376-0.181l-351.814 350.851-352.055-350.851c-34.364-34.354-90.022-34.123-124.376 0.231-34.244 34.414-34.244 90.072 0.221 124.376l414.118 412.752c17.197 17.117 39.635 25.65 62.093 25.65z" />
<glyph unicode="&#xe909;" glyph-name="budget-increase" d="M534.659 620.604c-77.252 0-140.137-62.896-140.137-140.208 0-77.282 62.886-140.157 140.137-140.157 77.272 0 140.157 62.876 140.157 140.157 0 77.312-62.886 140.208-140.157 140.208zM534.659 394.501c-47.375 0-85.885 38.52-85.885 85.896 0 47.395 38.51 85.946 85.885 85.946s85.906-38.551 85.906-85.946c-0.010-47.365-38.531-85.896-85.906-85.896zM828.597 620.604c-14.999 0-27.136-12.127-27.136-27.136v-226.093c0-14.999 12.137-27.136 27.136-27.136s27.116 12.127 27.116 27.136v226.103c0 14.999-12.117 27.126-27.116 27.126zM285.515 237.176h-40.217v38.902c0 14.999-12.137 27.126-27.136 27.126s-27.136-12.127-27.136-27.126v-38.902h-40.277c-14.979 0-27.116-12.127-27.116-27.126s12.137-27.136 27.116-27.136h40.277v-42.024c0-14.999 12.137-27.126 27.136-27.126s27.136 12.127 27.136 27.126v42.024h40.217c14.979 0 27.116 12.137 27.116 27.136s-12.127 27.126-27.116 27.126zM760.772 869.286h-452.156c-163.318 0-253.239-89.921-253.239-253.179v-278.879c-27.979-35.418-45.357-79.531-45.357-128.070 0-38.179 10.491-75.324 30.037-107.008 36.984-62.313 105.181-101.025 177.945-101.025 68.508 0 132.688 34.655 170.727 90.453h372.043c163.258 0 253.179 89.921 253.179 253.239v271.29c0 163.258-89.921 253.179-253.179 253.179zM218.012 55.376c-53.69 0-104.016 28.531-131.534 74.872-14.507 23.502-22.197 50.788-22.197 78.898 0 84.751 68.939 153.72 153.731 153.72s153.761-68.969 153.761-153.72c0-28.029-7.69-55.316-22.408-79.27-27.768-46.652-76.83-74.501-131.353-74.501zM959.699 344.807c0-132.026-66.941-198.977-198.917-198.977h-345.068c6.566 20.349 10.31 41.623 10.31 63.327 0 114.688-93.294 207.982-208.023 207.982-39.805 0-76.69-11.816-108.373-31.322v230.29c0 131.996 66.921 198.917 198.977 198.917h452.166c131.976 0 198.917-66.931 198.917-198.917v-271.3z" />
<glyph unicode="&#xe90a;" glyph-name="cards" d="M917.293 838.987l-0.090-0.040c-1.335 2.921-3.062 5.702-5.070 8.162l0.050 0.040c-16.956 21.614-40.86 33.511-67.253 33.511-36.211 0-74.059-20.882-112.499-62.062-22.659-24.395-57.183-22.347-77.111 4.237l-46.973 62.243c-24.435 33.109-59.553 52.083-96.346 52.083-36.754 0-71.861-18.974-96.125-51.752l-47.686-63.157c-19.566-26.032-53.399-28.361-76.659-3.604-66.209 70.907-140.127 79.159-179.752 28.411h0.040c-1.998-2.51-3.644-5.2-5.010-8.072l-0.090 0.040c-18.432-39.394-26.624-92.471-26.624-172.223v-463.209c0-79.752 8.192-132.829 26.624-172.223l0.090 0.040c1.466-3.333 3.283-6.475 5.331-9.025 17.047-21.153 40.85-32.838 66.992-32.838 36.071 0 73.859 20.932 112.76 62.564 22.528 23.944 56.681 22.257 76.378-4.106l47.425-62.745c24.445-33.049 59.553-52.023 96.306-52.023 36.794 0 71.911 18.974 96.125 51.752l47.285 62.655c19.747 26.403 54.262 28.491 77.071 4.106 38.39-41.131 76.238-62.012 112.449-62.012 26.624 0 50.467 11.716 65.606 31.051 2.701 2.962 4.979 6.666 6.706 10.632h0.050c18.422 39.444 26.624 92.572 26.624 172.183v463.199c0 79.611-8.202 132.739-26.624 172.183zM873.884 203.595c0-65.978-6.024-110.582-18.874-139.937-3.293-3.142-6.395-3.875-10.079-3.875-5.662 0-26.825 2.871-61.249 39.715-50.979 54.854-139.575 49.795-184.26-9.708l-47.435-62.886c-22.468-30.419-57.173-30.82-80.203 0.321l-47.516 62.886c-23.572 31.463-58.318 49.523-95.342 49.523-32.798 0-64.030-13.995-88.646-40.077-34.555-37.075-55.537-39.946-61.149-39.946-2.921 0-6.064 0.502-10.35 4.558-12.73 29.274-18.643 73.738-18.643 139.445v463.189c0 65.436 5.883 109.809 18.512 139.083 3.644 3.965 6.887 4.829 10.531 4.829 5.612 0 26.624-2.871 61.741-40.498 51.080-54.172 138.993-49.152 183.266 9.939l47.797 63.297c22.659 30.6 57.314 30.78 80.253-0.271l47.094-62.474c44.825-59.693 133.381-64.622 184.31-9.848 34.475 36.894 55.627 39.765 61.289 39.765 3.142 0 6.505-0.632 10.431-4.698 12.639-29.365 18.522-73.778 18.522-139.123v-463.209zM722.131 551.936h-373.549c-19.336 0-35.017-15.691-35.017-35.017s15.691-35.017 35.017-35.017h373.549c19.336 0 35.017 15.691 35.017 35.017s-15.691 35.017-35.017 35.017zM628.736 388.508h-280.154c-19.336 0-35.017-15.691-35.017-35.017s15.691-35.017 35.017-35.017h280.154c19.336 0 35.017 15.691 35.017 35.017s-15.681 35.017-35.017 35.017z" />
<glyph unicode="&#xe90b;" glyph-name="details" d="M558.692 446.876c8.985 0 17.92 3.423 24.757 10.26l360.418 360.418v-139.535c0-19.336 15.691-35.017 35.017-35.017s35.017 15.691 35.017 35.017v224.125c0 19.336-15.691 35.017-35.017 35.017h-224.105c-19.336 0-35.017-15.691-35.017-35.017s15.691-35.017 35.017-35.017h139.625l-360.468-360.468c-13.673-13.683-13.673-35.84 0-49.523 6.837-6.847 15.782-10.26 24.757-10.26zM978.944 423.524c-19.336 0-35.017-15.691-35.017-35.027v-93.385c0-215.452-76.378-291.84-291.84-291.84h-280.164c-215.462 0-291.84 76.378-291.84 291.84v280.174c0 215.452 76.378 291.84 291.84 291.84h93.385c19.336 0 35.017 15.691 35.017 35.017s-15.691 35.017-35.017 35.017h-93.385c-253.681 0-361.884-108.233-361.884-361.874v-280.164c0-253.651 108.203-361.884 361.884-361.884h280.154c253.681 0 361.884 108.233 361.884 361.874v93.385c0 19.346-15.681 35.027-35.017 35.027z" />
<glyph unicode="&#xe90c;" glyph-name="down-left" d="M78.748-57.354c13.372-5.913 27.688-9.106 42.355-9.407h781.794c14.547 0 28.983 2.901 42.466 8.453 13.503 5.562 25.771 13.784 35.971 24.064 20.942 20.821 32.627 49.082 32.627 78.467 0 14.607-2.821 29.033-8.513 42.516-5.572 13.483-13.724 25.72-24.114 36.001-20.821 20.821-48.991 32.527-78.436 32.527l-515.223-0.773 593.428 593.408c20.821 20.691 32.397 48.851 32.397 78.055 0 29.325-11.565 57.475-32.397 78.296-20.821 20.701-48.871 32.417-78.205 32.417-29.325 0-57.485-11.716-78.185-32.417l-593.388-593.388 0.703 515.122c0 29.555-11.615 57.705-32.497 78.527-20.831 20.811-49.102 32.648-78.426 32.648-29.565 0-57.725-11.836-78.547-32.648-20.831-20.821-32.517-48.971-32.517-78.527v-781.754c0.592-21.705 7.449-42.817 19.486-60.787 12.318-18.030 29.335-32.176 49.222-40.799z" />
<glyph unicode="&#xe90d;" glyph-name="help" d="M745.472 916.851h-466.934c-160.607 0-268.499-107.891-268.499-268.499v-280.164c0-148.611 92.431-252.115 233.472-266.712v-66.259c0-22.618 8.945-43.59 25.178-59.011 15.139-14.406 35.75-22.659 56.541-22.659 16.013 0.040 31.603 4.789 45.056 13.774l198.987 132.377h176.198c160.607 0 268.489 107.891 268.489 268.489v280.164c0 160.607-107.881 268.499-268.489 268.499zM943.917 368.188c0-120.561-77.884-198.445-198.455-198.445h-186.77c-6.887 0-13.623-2.058-19.376-5.883l-207.832-138.26c-4.749-3.102-10.632-2.279-14.547 1.416-2.289 2.138-3.373 4.829-3.373 8.212v99.499c0 19.336-15.691 35.027-35.017 35.027-120.571 0-198.455 77.884-198.455 198.445v280.154c0 120.571 77.874 198.455 198.445 198.455h466.934c120.571 0 198.455-77.884 198.455-198.445v-280.174zM512 710.003c-62.062 0-112.54-50.477-112.54-112.54 0-19.336 15.691-35.017 35.017-35.017 19.346 0 35.027 15.691 35.027 35.017 0 23.843 18.643 42.496 42.486 42.496 23.442 0 42.496-19.054 42.496-42.496 0-12.168-5.612-19.928-23.12-31.875-16.274-11.214-54.403-37.436-54.403-90.975v-9.758c0-19.336 15.691-35.017 35.017-35.017 19.346 0 35.027 15.691 35.027 35.017v9.758c0 12.81 5.612 20.56 23.933 33.2 14.687 9.989 53.589 36.613 53.589 89.65 0.020 62.062-50.457 112.54-112.53 112.54zM512.231 388.257h-0.462c-19.336 0-34.796-15.691-34.796-35.017s15.922-35.017 35.258-35.017 35.017 15.691 35.017 35.017-15.681 35.017-35.017 35.017z" />
<glyph unicode="&#xe90e;" glyph-name="left-square" d="M371.923 937.161h280.154c253.691 0 361.884-108.233 361.884-361.874v-280.164c0-253.651-108.193-361.884-361.884-361.884h-280.154c-253.671 0-361.884 108.233-361.884 361.874v280.174c0 253.641 108.213 361.874 361.884 361.874zM652.077 3.283c215.472 0 291.84 76.378 291.84 291.84v280.164c0 215.452-76.368 291.84-291.84 291.84h-280.154c-215.452 0-291.84-76.378-291.84-291.84v-280.164c0-215.452 76.388-291.84 291.84-291.84h280.154zM570.92 635.021c8.945 0 17.86-3.393 24.707-10.22 13.724-13.653 13.724-35.84 0.1-49.544l-139.666-140.057 139.666-140.127c13.623-13.683 13.623-35.86-0.1-49.523-13.663-13.683-35.84-13.593-49.513 0.090l-164.352 164.844c-13.623 13.653-13.623 35.77 0 49.453l164.352 164.794c6.847 6.847 15.832 10.29 24.807 10.29z" />
<glyph unicode="&#xe90f;" glyph-name="liked-posts" d="M243.511 621.97c0-70.817 57.585-128.412 128.412-128.412 70.817 0 128.402 57.595 128.402 128.412s-57.585 128.412-128.402 128.412c-70.827 0.010-128.412-57.585-128.412-128.412zM430.281 621.97c0-32.196-26.172-58.368-58.358-58.368-32.196 0-58.368 26.172-58.368 58.368s26.172 58.368 58.368 58.368c32.186 0 58.358-26.162 58.358-58.368zM978.944 516.919c-19.336 0-35.017-15.691-35.017-35.017v-59.101l-18.201 15.641c-49.704 42.677-127.588 42.677-177.293 0l-194.209-166.721c-23.391-19.968-62.795-20.018-85.815-0.271l-15.691 13.774c-44.735 38.44-115.963 42.496-165.577 9.075l-193.155-129.646c-9.437 36.302-13.914 79.34-13.914 130.46v280.174c0 215.452 76.378 291.84 291.84 291.84h140.087c19.336 0 35.017 15.691 35.017 35.017s-15.681 35.017-35.017 35.017h-140.077c-253.681 0-361.884-108.203-361.884-361.874v-280.164c0-253.681 108.203-361.884 361.884-361.884h280.154c253.681 0 361.884 108.203 361.884 361.874v186.78c0 19.336-15.681 35.027-35.017 35.027zM652.077 3.283h-280.154c-128.733 0-207.531 27.588-250.348 95.483l204.609 137.397c23.703 15.872 59.874 14.045 80.565-3.785l15.731-13.814c49.795-42.637 127.729-42.596 177.333 0l194.219 166.711c23.341 20.068 62.745 20.068 86.086 0l63.789-54.804v-35.348c0.010-215.462-76.368-291.84-291.83-291.84zM836.578 605.194c35.981 0 135.57 48.018 165.065 141.131 20.068 63.107-3.464 145.689-76.057 168.99-29.776 9.899-64.482 5.742-89.921-10.26-25.219 15.501-58.499 19.878-88.787 10.35-72.553-23.482-95.854-106.064-75.836-169.131 29.194-91.287 124.687-141.081 165.537-141.081zM768.221 848.655c3.594 1.185 7.62 1.777 11.625 1.777 5.471 0 19.245-1.325 27.999-13.272 6.706-9.206 15.862-13.683 29.003-14.366 11.405 0.221 22.016 6.024 28.361 15.551 7.519 11.214 20.741 12.398 26.082 12.398 4.196 0 8.443-0.632 12.549-2.008 30.861-9.899 40.94-49.985 31.051-81.217-18.111-57.133-82.030-89.55-98.404-92.2-14.085 2.279-79.26 31.463-98.675 92.25-9.899 31.192 0.040 71.278 30.409 81.087z" />
<glyph unicode="&#xe910;" glyph-name="location" d="M511.869 694.784c-99.659 0-180.756-81.097-180.756-180.796 0-99.659 81.097-180.706 180.756-180.706s180.756 81.047 180.756 180.706c0 99.709-81.097 180.796-180.756 180.796zM511.869 403.346c-61.028 0-110.692 49.624-110.692 110.642 0 61.069 49.664 110.743 110.692 110.743s110.692-49.674 110.692-110.743c0.010-61.018-49.664-110.642-110.692-110.642zM511.869 937.161c-174.321 0-373.499-102.169-425.402-330.401-57.063-252.085 95.001-463.129 232.659-595.807 52.174-50.116 120.641-77.714 192.793-77.714 72.192 0 140.569 27.638 192.472 77.724 137.828 132.407 290.214 343.171 233.161 595.346-51.732 228.553-251.041 330.852-425.683 330.852zM655.812 61.45c-38.852-37.537-89.941-58.147-143.892-58.147-53.961 0-105.181 20.661-144.223 58.147-124.647 120.139-262.756 309.599-212.902 529.8 46.291 203.605 221.294 275.848 357.075 275.848 136.011 0 311.196-72.333 357.356-276.259 49.855-220.291-88.526-409.439-213.414-529.388z" />
<glyph unicode="&#xe911;" glyph-name="logout" d="M670.65 938.165h-6.365c-218.915 0-323.986-86.95-340.721-281.901-1.777-20.229 13.242-38.029 33.431-39.745 21.042-2.148 38.019 13.202 39.745 33.431 13.493 156.541 85.986 214.749 267.545 214.749h6.365c199.258 0 269.854-70.596 269.854-269.844v-319.307c0-199.258-70.596-269.844-269.854-269.844h-6.365c-180.365 0-252.727 57.203-267.073 211.024-1.877 20.179-20.239 34.866-39.986 33.19-20.229-1.907-35.057-19.797-33.2-39.986 17.94-192.030 122.88-277.695 340.259-277.695h6.365c240.62 0 343.311 102.681 343.311 343.311v319.307c0 240.63-102.691 343.311-343.311 343.311zM135.449 398.948h523.575c20.279 0 36.723 16.454 36.723 36.733s-16.454 36.733-36.723 36.733h-523.575l101.396 101.346c14.356 14.346 14.356 37.597 0 51.943s-37.597 14.346-51.943 0l-164.101-164.051c-6.887-6.887-10.762-16.213-10.762-25.971s3.875-19.085 10.762-25.971l164.101-164.051c7.178-7.178 16.545-10.762 25.971-10.762s18.793 3.584 25.971 10.762c14.356 14.346 14.356 37.597 0 51.943l-101.396 101.346z" />
<glyph unicode="&#xe912;" glyph-name="my-posts" d="M652.077 937.161h-280.164c-253.671 0-361.874-108.203-361.874-361.874v-280.164c0-253.681 108.203-361.884 361.874-361.884h280.164c253.671 0 361.884 108.203 361.884 361.874v280.174c0 253.671-108.213 361.874-361.884 361.874zM943.907 295.113c0-215.452-76.368-291.84-291.83-291.84h-280.164c-215.462 0-291.83 76.378-291.83 291.84v280.174c0 215.452 76.368 291.84 291.83 291.84h280.164c215.462 0 291.83-76.378 291.83-291.84v-280.174zM768.723 233.010h-86.377c-19.336 0-35.017-15.691-35.017-35.017s15.691-35.017 35.017-35.017h86.377c19.336 0 35.017 15.691 35.017 35.017s-15.681 35.017-35.017 35.017zM557.327 233.010h-302.15c-19.336 0-35.017-15.691-35.017-35.017s15.691-35.017 35.017-35.017h302.15c19.336 0 35.017 15.691 35.017 35.017s-15.691 35.017-35.017 35.017zM768.723 408.566h-258.189c-19.336 0-35.017-15.691-35.017-35.017s15.691-35.017 35.017-35.017h258.189c19.336 0 35.017 15.691 35.017 35.017s-15.681 35.017-35.017 35.017zM255.177 338.532h129.375c19.336 0 35.017 15.691 35.017 35.017s-15.691 35.017-35.017 35.017h-129.375c-19.336 0-35.017-15.691-35.017-35.017s15.681-35.017 35.017-35.017z" />
<glyph unicode="&#xe913;" glyph-name="orders, order-purchased" d="M875.48 772.397l-249.495 138.802c-62.233 34.635-166.38 34.595-227.991 0l-249.475-138.752c-67.775-37.537-120.892-127.578-120.892-204.971v-264.021c0-77.422 53.117-167.464 120.842-204.951l249.575-138.772c30.901-17.087 71.379-26.493 113.955-26.493s83.044 9.407 113.955 26.534l249.495 138.682c67.805 37.517 120.932 127.578 120.932 204.991v264.031c-0.010 77.422-53.138 167.454-120.902 204.92zM432.188 850.020c20.299 11.415 49.333 17.94 79.631 17.94 30.349 0 59.512-6.546 80.103-18l249.565-138.842c16.886-9.336 32.989-24.566 46.542-42.667l-139.615-80.886-386.67 223.272 70.445 39.183zM182.523 711.158l107.821 59.974 388.076-224.095-166.611-96.517-376.069 217.62c13.593 18.241 29.786 33.601 46.783 43.018zM182.463 159.794c-45.126 24.988-84.731 92.12-84.731 143.661v264.021c0 12.087 2.249 25.048 6.164 38.109l372.786-215.733v-382.906c-16.916 2.701-32.487 7.359-44.624 14.065l-249.595 138.782zM926.278 303.455c0-51.541-39.615-118.674-84.831-143.701l-249.495-138.692c-12.298-6.807-28.070-11.505-45.176-14.195v382.896l163.649 94.8v-106.817c0-19.356 15.691-35.047 35.047-35.047 19.346 0 35.047 15.691 35.047 35.047v147.416l139.475 80.806c3.996-13.192 6.285-26.283 6.285-38.49v-264.021z" />
<glyph unicode="&#xe914;" glyph-name="post-payment" d="M534.679 620.584c-77.252 0-140.157-62.876-140.157-140.157 0-77.312 62.906-140.208 140.157-140.208s140.157 62.896 140.157 140.208c0 77.282-62.906 140.157-140.157 140.157zM534.679 394.481c-47.375 0-85.906 38.551-85.906 85.946 0 47.375 38.531 85.896 85.906 85.896s85.885-38.52 85.885-85.896c-0.010-47.395-38.51-85.946-85.885-85.946zM828.597 620.584c-14.999 0-27.136-12.137-27.136-27.136v-226.103c0-14.999 12.137-27.126 27.136-27.126s27.136 12.127 27.136 27.126v226.103c0 14.999-12.137 27.136-27.136 27.136zM270.306 273.348l-77.192-71.319-26.333 26.313c-10.611 10.541-27.768 10.571-38.37-0.020-10.591-10.601-10.591-27.799 0-38.39l44.785-44.725c5.291-5.271 12.238-7.921 19.175-7.921 6.626 0 13.192 2.379 18.392 7.208l96.336 89.018c11.023 10.17 11.706 27.347 1.526 38.34-10.13 10.923-27.307 11.615-38.32 1.496zM760.772 869.306h-452.156c-163.318 0-253.239-89.921-253.239-253.229v-277.645c-28.301-35.549-45.357-80.444-45.357-129.305 0-38.179 10.491-75.324 30.037-107.018 37.005-62.313 105.201-101.025 177.945-101.025 68.638 0 133.23 34.525 171.279 90.504h371.491c163.258 0 253.179 89.921 253.179 253.179v271.31c0 163.308-89.921 253.229-253.179 253.229zM218.012 55.356c-53.67 0-104.016 28.531-131.514 74.872-14.527 23.502-22.217 50.788-22.217 78.898 0 84.781 68.939 153.771 153.731 153.771s153.761-68.989 153.761-153.771c0-28.029-7.67-55.326-22.408-79.27-27.768-46.662-76.83-74.501-131.353-74.501zM959.699 344.777c0-131.996-66.921-198.917-198.917-198.917h-344.787c6.566 20.299 10.059 41.613 10.059 63.267 0 114.718-93.315 208.033-208.043 208.033-39.725 0-76.75-11.395-108.353-30.8v229.717c0 132.016 66.921 198.967 198.957 198.967h452.156c131.996 0 198.917-66.952 198.917-198.967v-271.3z" />
<glyph unicode="&#xe915;" glyph-name="returns" d="M512 936.589c-212.631 0-355.81-111.857-431.917-193.436v111.716c0 19.336-15.681 35.027-35.017 35.027s-35.027-15.691-35.027-35.027v-212.671c0-0.231 0-0.412 0-0.592 0.191-19.205 15.782-34.706 35.017-34.706h207.34c19.346 0 35.017 15.681 35.017 35.017s-15.681 35.017-35.017 35.017h-136.935c62.113 71.419 195.263 189.611 396.539 189.611 238.17 0 431.917-193.747 431.917-431.907 0-196.036-132.337-367.757-321.797-417.651-18.693-4.919-29.877-24.074-24.937-42.817 4.146-15.691 18.332-26.082 33.832-26.082 2.962 0 5.973 0.361 8.985 1.134 220.15 58.007 373.961 257.586 373.961 485.406 0 276.791-225.17 501.961-501.961 501.961zM481.139 3.765c-43.279 3.052-85.584 12.579-125.811 28.27-18.020 6.837-38.3-1.877-45.367-19.928-7.027-18.010 1.897-38.3 19.908-45.377 46.793-18.241 95.995-29.274 146.332-32.828 0.823-0.050 1.687-0.090 2.51-0.090 18.201 0 33.561 14.095 34.886 32.557 1.365 19.295-13.171 36.031-32.457 37.396zM99.288 307.039c-12.72 41.131-19.205 84.038-19.205 127.588 0 19.336-15.681 35.017-35.017 35.017-19.336 0.010-35.027-15.681-35.027-35.017 0-50.568 7.529-100.452 22.307-148.289 4.648-15.049 18.522-24.676 33.471-24.676 3.423 0 6.927 0.502 10.35 1.546 18.472 5.763 28.813 25.369 23.12 43.831zM155.507 190.856c-10.943 15.912-32.698 20.109-48.71 9.116-15.962-10.943-20.018-32.738-9.116-48.7 28.411-41.442 62.795-78.386 102.239-109.759 6.435-5.11 14.135-7.61 21.795-7.61 10.26 0 20.47 4.508 27.407 13.222 12.027 15.139 9.517 37.165-5.622 49.202-33.963 27.046-63.548 58.82-87.994 94.529z" />
<glyph unicode="&#xe916;" glyph-name="right-square" d="M652.077-66.761h-280.154c-253.691 0-361.884 108.233-361.884 361.874v280.174c0 253.641 108.193 361.874 361.884 361.874h280.154c253.671 0 361.884-108.233 361.884-361.874v-280.164c0-253.651-108.213-361.884-361.884-361.884zM371.923 867.117c-215.472 0-291.84-76.378-291.84-291.84v-280.164c0-215.452 76.368-291.84 291.84-291.84h280.154c215.452 0 291.84 76.378 291.84 291.84v280.174c0 215.452-76.388 291.84-291.84 291.84h-280.154zM453.080 235.379c-8.945 0-17.86 3.393-24.707 10.22-13.724 13.653-13.724 35.84-0.1 49.544l139.666 140.057-139.666 140.127c-13.623 13.683-13.623 35.86 0.1 49.523 13.663 13.683 35.84 13.593 49.513-0.090l164.352-164.844c13.623-13.653 13.623-35.77 0-49.453l-164.352-164.794c-6.847-6.847-15.832-10.29-24.807-10.29z" />
<glyph unicode="&#xe917;" glyph-name="settings" d="M511.779 610.224c-96.487 0-175.024-78.537-175.024-175.024s78.527-175.024 175.024-175.024 175.014 78.537 175.014 175.024-78.527 175.024-175.014 175.024zM511.779 330.19c-57.886 0-105.010 47.124-105.010 105.010s47.124 105.010 105.010 105.010 105.010-47.124 105.010-105.010-47.134-105.010-105.010-105.010zM890.268 599.974c-27.397 0-47.636 7.841-55.517 21.464-7.881 13.724-4.457 35.187 9.347 59.021 16.454 28.531 20.781 61.852 12.127 93.847-8.664 31.995-29.174 58.609-57.796 74.973l-80.223 45.849c-51.371 30.64-123.523 11.676-154.604-40.599l-5.060-8.794c-27.618-47.496-65.536-47.997-93.033 0.090l-5.331 9.065c-20.42 34.455-57.886 55.838-97.672 55.838-19.958 0-39.555-5.381-56.2-15.27l-80.715-46.17c-28.632-16.364-49.142-42.978-57.756-74.933-8.654-31.995-4.327-65.355 12.168-93.937 13.774-23.793 17.147-45.257 9.306-58.94-7.881-13.673-28.17-21.514-55.607-21.514-68.196 0.010-123.663-55.467-123.663-123.693v-82.141c0-68.186 55.467-123.653 123.653-123.653 27.437 0 47.676-7.841 55.557-21.514 7.891-13.724 4.518-35.187-9.296-59.021-16.454-28.481-20.781-61.801-12.127-93.806 8.614-31.995 29.124-58.609 57.705-74.933l80.264-45.939c51.361-30.579 123.653-11.625 154.564 40.478l5.15 8.935c27.618 47.636 65.536 47.817 92.983 0.040l5.331-9.246c20.51-34.414 57.936-55.788 97.722-55.788 19.908 0 39.514 5.381 56.2 15.31l80.675 46.17c59.021 33.772 79.581 109.437 45.628 168.819-13.764 23.793-17.187 45.307-9.306 58.98s28.13 21.514 55.517 21.514c68.227 0 123.693 55.467 123.693 123.653v82.141c0.010 68.227-55.457 123.703-123.683 123.703zM943.947 394.13c0-29.576-24.054-53.64-53.69-53.64-53.097 0-95.443-20.6-116.184-56.561-20.691-35.971-17.277-83.004 9.306-128.853 14.677-25.71 5.833-58.529-19.737-73.156l-81.177-46.492c-19.737-11.716-46.763-3.825-58.258 15.45l-5.060 8.754c-26.433 46.12-65.405 72.563-106.968 72.563-41.482 0-80.535-26.383-107.209-72.333l-4.969-8.614c-11.806-19.827-37.918-27.989-58.93-15.541l-80.765 46.261c-12.308 7.017-21.143 18.552-24.887 32.407-3.785 13.904-1.917 28.301 5.1 40.518 26.714 45.99 30.128 93.023 9.397 128.984-20.701 35.971-63.076 56.611-116.224 56.611-29.576 0-53.65 24.064-53.65 53.64v82.141c0 29.626 24.064 53.69 53.65 53.69 53.148 0 95.533 20.6 116.224 56.561 20.731 35.96 17.328 83.004-9.347 128.944-7.068 12.308-8.935 26.714-5.15 40.609 3.735 13.854 12.579 25.389 24.887 32.407l81.227 46.492c19.637 11.625 46.712 3.915 58.298-15.591l5.060-8.614c26.393-46.12 65.405-72.563 106.928-72.563s80.575 26.383 107.289 72.473l4.879 8.433c11.806 19.868 37.697 28.17 58.98 15.541l80.715-46.17c12.308-7.017 21.193-18.552 24.927-32.457s1.917-28.301-5.1-40.518c-26.714-46.030-30.128-93.023-9.437-128.984 20.741-35.971 63.036-56.561 116.184-56.561 29.626 0 53.69-24.064 53.69-53.69v-82.141z" />
<glyph unicode="&#xe918;" glyph-name="shared-posts, share" d="M702.595 916.078l-442.639-147.587c-206.637-69.13-249.966-156.541-249.916-217.731 0.050-61.139 43.42-148.4 249.956-217.178l112.861-37.567 37.567-112.76c68.779-206.687 156.24-250.067 217.48-250.067s148.711 43.369 217.48 250.007l147.526 442.699c32.276 97.541 27.287 182.764-14.045 239.977-51.973 71.841-153.58 91.036-276.269 50.206zM918.699 650.541l-147.536-442.649c-48.208-144.886-105.633-196.508-143.26-196.508s-95.051 51.622-143.26 196.558l-39.253 117.85 182.563 183.065c15.229 15.27 15.229 40.006-0.1 55.286-15.27 15.219-40.016 15.219-55.286-0.1l-186.629-187.141c-0.663-0.663-0.924-1.576-1.526-2.289l-99.679 33.19c-144.816 48.218-196.498 105.492-196.498 143.059-0.050 37.577 51.571 94.991 196.508 143.46l442.589 147.536c34.726 11.605 66.64 17.458 94.84 17.458 29.626 0 69.843-6.827 93.315-39.253 26.222-36.292 27.397-96.517 3.213-169.522z" />
<glyph unicode="&#xe919;" glyph-name="up-right" d="M945.252 927.754c-13.372 5.923-27.688 9.116-42.345 9.407h-781.804c-14.547 0-28.983-2.901-42.466-8.453-13.503-5.562-25.771-13.784-35.971-24.074-20.942-20.811-32.627-49.072-32.627-78.467 0-14.607 2.821-29.033 8.513-42.516 5.572-13.483 13.724-25.72 24.114-36.001 20.821-20.821 48.991-32.527 78.436-32.527l515.223 0.773-593.428-593.428c-20.821-20.691-32.397-48.851-32.397-78.055 0-29.325 11.565-57.475 32.397-78.296 20.821-20.701 48.871-32.417 78.205-32.417 29.325 0 57.485 11.716 78.185 32.417l593.378 593.408-0.703-515.122c0-29.555 11.615-57.705 32.497-78.527 20.841-20.801 49.112-32.637 78.446-32.637 29.565 0 57.725 11.836 78.547 32.648 20.821 20.821 32.507 48.971 32.507 78.527v781.754c-0.592 21.705-7.449 42.817-19.486 60.787-12.318 18.030-29.335 32.176-49.222 40.799z" />
<glyph unicode="&#xe91a;" glyph-name="view" d="M511.809 232.95c-111.415 0-202.019 90.614-202.019 202.019s90.604 202.019 202.019 202.019c111.395 0 202.019-90.614 202.019-202.019s-90.624-202.019-202.019-202.019zM511.809 579.002c-79.41 0-144.023-64.622-144.023-144.023s64.612-144.023 144.023-144.023c79.39 0 144.023 64.622 144.023 144.023s-64.622 144.023-144.023 144.023zM511.99 6.295c-178.979 0-348.371 104.95-464.765 287.935-49.604 77.704-49.604 204.228 0 281.992 116.395 182.935 285.786 287.885 464.765 287.885 178.959 0 348.351-104.95 464.745-287.935 49.604-77.704 49.604-204.228 0-281.992-116.395-182.935-285.786-287.885-464.745-287.885zM511.99 806.109c-158.76 0-310.312-95.152-415.824-261.090-37.396-58.509-37.396-161.129 0-219.638 105.512-165.938 257.054-261.090 415.824-261.090 158.75 0 310.292 95.152 415.804 261.090 37.396 58.509 37.396 161.129 0 219.638-105.512 165.938-257.054 261.090-415.804 261.090z" />
<glyph unicode="&#xe91b;" glyph-name="wallet" d="M628.796 283.477h-233.492c-19.346 0-35.027-15.691-35.027-35.017 0-19.336 15.691-35.027 35.027-35.027h233.492c19.336 0 35.017 15.691 35.017 35.027 0 19.325-15.681 35.017-35.017 35.017zM1002.697 469.353c0 111.004-58.78 211.235-153.731 265.597-2.058 4.467-4.337 8.714-6.756 12.398-4.196 7.8-9.065 14.868-15.41 22.347-27.036 33.38-70.134 61.611-135.439 88.696l-110.632 46.572c-4.648 2.008-9.306 3.925-14.085 5.612 0 0.050-0.050 0.090-0.1 0.090-0.181 0.040-0.311 0.090-0.502 0.181-0.271 0.090-0.552 0.231-0.813 0.321-0.050 0-0.141 0-0.191 0-45.919 17.458-84.771 25.992-118.664 25.992-107.53 0-159.744-87.281-193.175-164.041-1.546-2.921-2.5-5.24-3.142-7.017-133.491-35.579-228.894-156.692-228.894-296.749v-136.855c0-0.954 0.462-1.777 0.552-2.691v-88.375c0-12.73 1.044-25.449 2.409-35.479 10.953-165.858 104.438-259.343 268.057-270.065 12.228-1.646 24.998-2.65 37.768-2.65h364.233c191.357 0 297.743 96.226 307.682 278.458 0.512 9.899 0.964 19.797 0.964 29.736v91.066c0 0.552-0.141 1.094-0.141 1.646v135.208zM927.955 515.875c-0.683 0.683-1.496 1.235-2.239 1.917-21.243 21.524-46.231 39.404-74.059 52.676-0.361 0.141-0.632 0.412-0.964 0.552 1.827 5.652 2.972 10.852 4.518 16.284 0.090 0.502 0.271 1.004 0.361 1.506 4.467 16.284 7.941 31.975 9.527 46.431 31.664-32.678 53.73-74.31 62.856-119.366zM772.849 725.062c3.554-4.237 5.742-7.299 9.025-13.222 2.56-3.965 4.247-7.339 5.020-10.3 0.452-1.596 1.004-3.192 1.687-4.698 1.044-2.419 1.877-4.829 2.962-8.845 1.827-5.793 3.012-12.037 3.644-18.653 0.050-0.361 0.191-0.683 0.191-1.044 0.502-5.471 0.271-11.495-0.050-17.609-0.141-2.369-0.181-4.739-0.402-7.248-0.643-6.425-1.697-13.181-3.192-20.249-0.361-1.958-0.863-3.976-1.325-5.933-1.877-8.021-4.056-16.324-6.927-25.168-0.863 0.141-1.777 0.090-2.65 0.181-13.262 2.008-26.724 3.142-40.398 3.142h-269.975l102.099 237.006 91.809-38.631c54.262-22.538 88.606-44.203 108.484-68.728zM316.777 743.575c44.323 102.561 83.868 123.543 129.596 123.543 17.378 0 37.406-3.333 60.516-10.079l-19.878-46.2-92.853-215.432h-110.040c-10.13 0-20.159-0.552-30.098-1.687l54.724 130.701 5.692 14.677c0.873 1.466 1.646 2.921 2.339 4.477zM212.982 677.266l-45.658-109.046c-4.508-2.239-8.433-5.291-12.76-7.75-4.829-2.781-9.577-5.612-14.135-8.614-7.118-4.648-13.864-9.537-20.43-14.778-3.785-3.102-7.379-6.335-10.993-9.577-4.337-3.875-9.116-7.258-13.141-11.405 13.734 68.498 57.013 127.418 117.117 161.17zM931.92 215.341c-7.891-144.655-83.416-212.058-237.739-212.058h-364.233c-9.668 0-19.336 0.823-30.871 2.239-131.243 8.664-196.417 73.828-205.262 207.179-1.185 9.306-2.048 19.014-2.048 28.732v91.066c0 77.161 45.97 146.844 116.696 177.313 24.717 10.31 50.357 15.551 76.157 15.551h455.268c3.694 0 7.068-0.542 10.632-0.723 10.762-0.502 21.203-1.917 31.423-4.056 4.287-0.964 8.804-1.596 12.86-2.831 0.452-0.181 0.773-0.552 1.225-0.683 39.454-11.806 72.925-36.211 96.949-67.855 0.462-0.592 1.094-1.144 1.556-1.777 24.074-32.557 38.119-72.644 38.119-114.869 0-0.231 0.141-0.452 0.141-0.683v-90.433c-0.010-8.774-0.462-17.579-0.873-26.112z" />
<glyph unicode="&#xe91c;" glyph-name="wallet-2" d="M641.064 739.669c33.551-24.445 79.491-24.445 113.032 0l51.873-51.843c-11.957-16.324-18.382-35.93-18.382-56.531 0-20.59 6.425-40.187 18.382-56.511l-37.567-37.567 21.123-21.123 47.275 47.315c2.801 2.801 4.397 6.606 4.397 10.551 0 3.965-1.596 7.76-4.397 10.561-12.489 12.489-19.376 29.104-19.376 46.763 0 17.679 6.887 34.294 19.376 46.783 2.801 2.811 4.397 6.606 4.397 10.561s-1.596 7.75-4.397 10.561l-71.319 71.319c-5.823 5.833-15.27 5.833-21.123 0-25.771-25.791-67.735-25.791-93.515 0-5.833 5.833-15.3 5.833-21.123 0l-42.777-42.767 21.123-21.112 32.999 33.039zM685.889 800.196c0.341-0.904 0.843-1.777 1.365-2.57 0.542-0.833 1.144-1.586 1.887-2.279 0.663-0.703 1.466-1.305 2.239-1.867 0.833-0.532 1.677-0.984 2.58-1.355 0.904-0.392 1.877-0.673 2.801-0.843 0.944-0.211 1.938-0.311 2.941-0.311 0.964 0 1.917 0.090 2.881 0.311 0.974 0.171 1.897 0.452 2.801 0.843 0.914 0.371 1.787 0.823 2.59 1.355 0.813 0.562 1.556 1.165 2.249 1.867 0.683 0.683 1.305 1.436 1.877 2.279 0.532 0.793 0.994 1.667 1.375 2.57 0.361 0.883 0.643 1.837 0.833 2.801 0.211 0.964 0.271 1.948 0.271 2.921 0 0.964-0.060 1.938-0.271 2.911-0.191 0.954-0.472 1.887-0.833 2.801-0.381 0.904-0.843 1.777-1.375 2.57-0.572 0.833-1.185 1.596-1.877 2.279-0.683 0.683-1.436 1.305-2.249 1.837-0.803 0.552-1.677 1.014-2.59 1.375-0.904 0.361-1.837 0.663-2.801 0.843-1.917 0.392-3.885 0.392-5.823 0-0.934-0.191-1.897-0.482-2.801-0.843-0.904-0.371-1.747-0.823-2.58-1.375-0.773-0.532-1.566-1.155-2.239-1.837-0.733-0.683-1.345-1.456-1.887-2.279-0.522-0.793-1.024-1.667-1.365-2.57-0.371-0.914-0.653-1.857-0.843-2.801-0.211-0.964-0.311-1.948-0.311-2.911 0-0.974 0.1-1.948 0.311-2.921 0.191-0.964 0.472-1.917 0.843-2.801zM855.080 630.965c0.341-0.904 0.833-1.777 1.375-2.56 0.562-0.843 1.155-1.596 1.867-2.279 0.693-0.683 1.446-1.305 2.279-1.867 0.813-0.532 1.677-0.984 2.56-1.355 0.914-0.392 1.867-0.673 2.801-0.843 0.924-0.211 1.917-0.311 2.921-0.311 0.974 0 1.938 0.090 2.901 0.311 0.964 0.171 1.897 0.452 2.801 0.843 0.904 0.371 1.777 0.823 2.59 1.355 0.803 0.552 1.556 1.175 2.239 1.867 0.683 0.683 1.315 1.436 1.877 2.279 0.532 0.793 1.004 1.667 1.365 2.56 0.381 0.924 0.653 1.837 0.883 2.801 0.191 0.954 0.271 1.938 0.271 2.911 0 0.964-0.090 1.948-0.271 2.921-0.221 0.944-0.502 1.887-0.883 2.801-0.361 0.904-0.833 1.747-1.365 2.57-0.562 0.813-1.185 1.586-1.877 2.279-0.673 0.673-1.436 1.305-2.239 1.837-0.813 0.562-1.687 1.014-2.59 1.385-0.904 0.361-1.847 0.653-2.801 0.833-1.897 0.392-3.905 0.392-5.823 0-0.944-0.191-1.887-0.472-2.801-0.833-0.883-0.371-1.747-0.823-2.56-1.385-0.833-0.532-1.576-1.165-2.279-1.837-0.703-0.683-1.305-1.466-1.867-2.279-0.542-0.823-1.034-1.667-1.375-2.57-0.371-0.914-0.653-1.857-0.843-2.801-0.191-0.964-0.311-1.948-0.311-2.921s0.131-1.958 0.311-2.911c0.181-0.954 0.472-1.877 0.843-2.801zM844.398 472.265l159.031 159.031-305.875 305.865-98.726-98.746-62.354 62.333-276.37-276.36v0.482h-113.835c-69.291 0-125.701-56.39-125.701-125.691v-440.23c0-69.331 56.41-125.711 125.701-125.711h646.857c57.073 0 103.474 46.441 103.474 103.534v345.67c0 38.4-21.062 71.971-52.204 89.821zM697.555 894.936l263.63-263.64-147.436-147.446c-6.666 1.355-13.583 2.078-20.621 2.078h-59.553c14.507 50.547 0.703 106.476-37.095 144.294-27.658 27.658-64.442 42.888-103.555 42.888s-75.886-15.229-103.534-42.888c-37.998-37.998-51.853-93.365-37.115-144.294h-163.73l409.008 409.008zM702.173 485.918h-218.483c-15.912 42.737-5.542 90.835 26.785 123.171 22.016 22.036 51.29 34.153 82.452 34.153 31.142 0 60.416-12.117 82.472-34.153 32.166-32.166 42.476-80.856 26.775-123.171zM536.476 858.534l41.231-41.241-331.073-331.374h-29.515c-14.738 0-28.070 5.853-37.908 15.34l357.266 357.276zM217.108 595.004h13.633l-66.801-66.791c-0.873 3.945-1.375 8.031-1.375 12.238 0 30.098 24.445 54.553 54.543 54.553zM866.766 143.661h-150.006c-33.21 0-60.235 27.005-60.235 60.235 0 33.2 27.026 60.235 60.235 60.235h150.006v-120.471zM866.766 293.978h-150.006c-49.644 0-90.082-40.428-90.082-90.072 0-49.714 40.428-90.112 90.082-90.112h150.006v-77.021c0-40.619-33.059-73.668-73.638-73.668h-646.857c-52.856 0-95.834 42.978-95.834 95.834v440.24c0 52.836 42.978 95.834 95.834 95.834h6.505c-12.519-14.707-20.088-33.762-20.088-54.553 0-46.532 37.848-84.39 84.41-84.39h576.030c40.579 0 73.638-33.049 73.638-73.628v-88.466zM712.162 218.825h64.402v-29.877h-64.402v29.877zM384.853 99.75h43.018v-29.837h-43.018v29.837zM153.741 99.75h193.516v-29.837h-193.516v29.837z" />
<glyph unicode="&#xe91d;" glyph-name="wishlist, heart" d="M719.29 885.82c-77.744 0-152.576-31.603-207.209-86.147-54.714 55.176-128.321 86.147-207.43 86.147-162.465 0-294.611-132.789-294.611-296.036 0-360.368 341.906-558.231 461.422-599.040 14.497-5.060 30.047-6.154 40.538-6.154s26.042 1.094 40.267 6.064c119.788 40.9 461.693 238.803 461.693 599.13 0 163.248-132.196 296.036-294.671 296.036zM529.368 56.862c-5.843-2.098-28.642-2.189-35.017 0.090-107.48 36.703-414.268 213.363-414.268 532.831 0 124.627 100.723 225.993 224.577 225.993 71.188 0 136.523-32.969 179.21-90.473 13.222-17.779 43.038-17.779 56.27 0 42.044 56.641 109.016 90.473 179.16 90.473 123.844 0 224.627-101.366 224.627-225.993-0.010-319.468-306.808-496.128-414.559-532.922z" />
<glyph unicode="&#xe91e;" glyph-name="withdraw" d="M547.017 645.321c0 19.336-15.691 35.017-35.017 35.017s-35.017-15.691-35.017-35.017v-11.214h-13.553c-56.631 0-102.731-47.747-102.731-106.456 0-68.036 39.675-90.062 69.722-100.774l46.562-16.233v-103.856h-3.745c-23.652 0-42.948 20.952-42.948 46.692 0 19.336-15.691 35.017-35.017 35.017s-35.017-15.691-35.017-35.017c0-64.361 50.708-116.736 112.991-116.736h3.745v-11.676c0-19.336 15.691-35.017 35.017-35.017s35.017 15.691 35.017 35.017v11.676h14.005c56.641 0 102.731 47.747 102.731 106.436 0 68.036-39.625 90.082-69.722 100.814l-47.014 16.394v103.675h4.196c23.662 0 42.948-20.952 42.948-46.692 0-19.336 15.691-35.017 35.017-35.017 19.346 0 35.027 15.691 35.027 35.017 0 64.361-50.718 116.736-113.001 116.736h-4.196v11.214zM570.689 377.976c15.962-5.722 23.030-9.306 23.030-34.796 0-20.068-14.687-36.392-32.698-36.392h-14.005v79.43l23.672-8.242zM476.983 484.814l-23.251 8.122c-16.324 5.833-22.98 9.206-22.98 34.716 0 20.088 14.677 36.412 32.688 36.412h13.553v-79.25zM978.944 470.217c-19.336 0-35.017-15.691-35.017-35.017 0-238.17-193.757-431.917-431.917-431.917s-431.927 193.747-431.927 431.917 193.747 431.917 431.917 431.917c19.336 0 35.017 15.691 35.017 35.017s-15.681 35.027-35.017 35.027c-276.791 0-501.961-225.17-501.961-501.961s225.17-501.961 501.961-501.961 501.961 225.17 501.961 501.961c0 19.336-15.681 35.017-35.017 35.017zM992.346 934.45c-4.287 1.777-8.845 2.711-13.402 2.711h-186.78c-19.336 0-35.017-15.691-35.017-35.017s15.691-35.017 35.017-35.017h102.239l-173.699-173.699c-13.673-13.683-13.673-35.84 0-49.523 6.847-6.847 15.782-10.26 24.767-10.26s17.92 3.413 24.757 10.26l173.688 173.688v-102.239c0-19.336 15.691-35.017 35.017-35.017s35.027 15.691 35.027 35.027v186.78c0 4.558-0.914 9.096-2.691 13.382-3.554 8.543-10.401 15.39-18.924 18.924z" />
<glyph unicode="&#xe91f;" glyph-name="check-1" d="M722.663 917.855h-420.854c-182.804 0-291.77-104.749-291.77-280.425v-403.958c0-176.168 108.966-280.917 291.77-280.917h420.362c182.814-0.010 291.79 104.739 291.79 280.415v404.46c0.532 175.676-108.494 280.425-291.298 280.425zM752.309 546.214l-284.732-273.679c-7.048-6.756-16.585-10.601-26.614-10.601-10.069 0-19.607 3.845-26.624 10.601l-142.155 136.604c-14.547 13.995-14.547 37.145 0 51.18 14.557 13.985 38.691 13.985 53.248 0l115.541-111.024 258.108 248.079c14.587 13.995 38.651 13.995 53.238 0 14.547-13.985 14.547-36.683-0.010-51.16z" />
<glyph unicode="&#xe920;" glyph-name="remove-1" d="M722.663 917.855h-420.854c-182.804 0-291.77-104.749-291.77-280.425v-403.958c0-176.168 108.966-280.917 291.77-280.917h420.362c182.814-0.010 291.79 104.739 291.79 280.415v404.46c0.532 175.676-108.494 280.425-291.298 280.425zM680.659 319.739c14.547-14.537 14.547-38.661 0-53.198-7.549-7.549-17.087-11.053-26.594-11.053-9.537 0-19.085 3.504-26.594 11.053l-115.471 115.451-115.461-115.451c-7.509-7.549-17.057-11.043-26.594-11.043s-19.095 3.494-26.604 11.043c-14.577 14.537-14.577 38.661 0 53.198l115.451 115.461-115.451 115.461c-14.577 14.537-14.577 38.661 0 53.198 14.567 14.547 38.661 14.547 53.198 0l115.461-115.451 115.461 115.451c14.537 14.547 38.661 14.547 53.198 0 14.547-14.537 14.547-38.661 0-53.198l-115.451-115.461 115.451-115.461z" />
<glyph unicode="&#xe921;" glyph-name="check-2" d="M512 937.161c-276.57 0-501.961-225.36-501.961-501.961s225.39-501.961 501.961-501.961c276.6 0 501.961 225.36 501.961 501.961s-225.36 501.961-501.961 501.961zM752.309 546.214l-284.732-273.679c-7.048-6.756-16.585-10.601-26.614-10.601-10.069 0-19.607 3.845-26.624 10.601l-142.155 136.604c-14.547 13.995-14.547 37.145 0 51.18 14.557 13.985 38.691 13.985 53.248 0l115.541-111.024 258.108 248.079c14.587 13.995 38.651 13.995 53.238 0 14.547-13.985 14.547-36.683-0.010-51.16z" />
<glyph unicode="&#xe922;" glyph-name="remove-2" d="M512 937.161c-276.57 0-501.961-225.36-501.961-501.961s225.39-501.961 501.961-501.961c276.6 0 501.961 225.36 501.961 501.961s-225.36 501.961-501.961 501.961zM680.659 319.739c14.547-14.537 14.547-38.661 0-53.198-7.549-7.549-17.087-11.053-26.594-11.053-9.537 0-19.085 3.504-26.594 11.053l-115.471 115.451-115.461-115.451c-7.509-7.549-17.057-11.043-26.594-11.043s-19.095 3.494-26.604 11.043c-14.577 14.537-14.577 38.661 0 53.198l115.451 115.461-115.451 115.461c-14.577 14.537-14.577 38.661 0 53.198 14.567 14.547 38.661 14.547 53.198 0l115.461-115.451 115.461 115.451c14.537 14.547 38.661 14.547 53.198 0 14.547-14.537 14.547-38.661 0-53.198l-115.451-115.461 115.451-115.461z" />
<glyph unicode="&#xe923;" glyph-name="wallet-fill" d="M509.048 926.911l-121.013-281.68h-121.023c-20.099 0-39.655-1.486-58.739-5.512l50.216 120.491 2.008 4.558 2.992 7.991c1.506 3.544 2.55 6.515 4.026 9.065 58.248 135.048 123.573 177.232 241.533 145.087zM850.040 631.688l-0.974 0.492c-30.118 8.533-60.757 13.051-91.889 13.051h-314.328l114.457 266.16c7.048-2.56 14.607-6.084 22.157-8.543l110.913-46.733c61.781-25.59 104.93-52.214 131.554-84.329 4.568-6.034 8.584-11.565 12.559-18.101 4.558-6.997 8.051-14.015 10.059-21.564 2.008-4.518 3.534-8.543 4.508-13.041 7.549-25.6 8.061-54.734 0.984-87.391zM827.834 559.907c-22.608 6.475-46.2 9.999-70.766 9.999h-490.094c-34.123 0-66.259-6.525-96.407-19.566-87.331-37.647-148.621-124.516-148.621-225.461v-97.923c0-12.067 0.984-23.602 2.5-35.649 11.043-159.664 96.447-245.027 256.131-255.568 11.505-1.526 23.030-2.5 35.579-2.5h391.71c185.725 0 283.718 88.365 293.225 264.102 0.492 9.517 0.984 19.617 0.984 29.616v97.923c-0.020 110.953-73.818 204.378-174.241 235.028zM637.54 196.859h-251.081c-20.59 0-37.647 17.047-37.647 37.637 0 20.611 17.057 37.667 37.647 37.667h251.081c20.59 0 37.647-17.057 37.647-37.667 0-20.59-17.057-37.637-37.647-37.637z" />
<glyph unicode="&#xe924;" glyph-name="calendar" d="M733.796 865.611v36.533c0 19.325-15.691 35.017-35.027 35.017s-35.017-15.691-35.017-35.017v-35.017h-303.506v35.017c0 19.325-15.691 35.017-35.017 35.017s-35.017-15.691-35.017-35.017v-36.533c-148.922-12.74-233.482-108.403-233.482-266.983v-396.9c0-170.637 97.852-268.489 268.499-268.489h373.549c170.637 0 268.489 97.852 268.489 268.489v396.9c0 158.579-84.56 254.243-233.472 266.983zM290.204 795.226v-33.17c0-19.336 15.691-35.017 35.017-35.017s35.017 15.691 35.017 35.017v35.017h303.506v-35.017c0-19.336 15.691-35.017 35.017-35.017s35.017 15.691 35.017 35.017v33.17c107.4-10.672 160.969-72.855 163.197-189.119h-769.968c2.229 116.264 55.798 178.447 163.197 189.119zM698.77 3.283h-373.539c-133.522 0-198.455 64.944-198.455 198.455v334.326h770.45v-334.336c0-133.512-64.934-198.445-198.455-198.445zM684.915 402.502h-0.452c-25.811 0-46.472-20.882-46.472-46.692 0-25.801 21.112-46.682 46.923-46.682s46.692 20.882 46.692 46.682c0 25.811-20.882 46.692-46.692 46.692zM684.915 262.425h-0.452c-25.811 0-46.472-20.882-46.472-46.692s21.112-46.692 46.923-46.692 46.692 20.882 46.692 46.692-20.882 46.692-46.692 46.692zM512.181 402.502h-0.452c-25.801 0-46.472-20.882-46.472-46.692 0-25.801 21.123-46.682 46.923-46.682 25.811 0 46.692 20.882 46.692 46.682 0 25.811-20.882 46.692-46.692 46.692zM512.181 262.425h-0.452c-25.801 0-46.472-20.882-46.472-46.692s21.123-46.692 46.923-46.692c25.811 0 46.692 20.882 46.692 46.692s-20.882 46.692-46.692 46.692zM339.456 402.502h-0.452c-25.811 0-46.472-20.882-46.472-46.692 0-25.801 21.123-46.682 46.923-46.682s46.692 20.882 46.692 46.682c0 25.811-20.892 46.692-46.692 46.692zM339.456 262.425h-0.452c-25.811 0-46.472-20.882-46.472-46.692s21.123-46.692 46.923-46.692 46.692 20.882 46.692 46.692-20.892 46.692-46.692 46.692z" />
<glyph unicode="&#xe925;" glyph-name="trash, remove, delete" d="M940.986 748.434c-78.517 7.77-157.033 13.824-235.5 18.101 0.181 2.108 0.612 4.156 0.221 6.375l-10.431 61.269c-7.037 43.44-16.745 102.982-121.354 102.982h-124.024c-104.147 0-113.634-56.762-121.294-102.32l-10.431-61.982c-0.271-1.606 0.171-3.112 0.171-4.718-46.391-2.389-92.672-5.501-138.672-10.16l-96.607-9.487c-15.591-1.546-27.016-15.48-25.52-31.081 1.496-15.651 15.752-26.524 31.071-25.52l96.728 9.537c246.764 24.917 498.748 15.37 750-9.477 1.004-0.12 1.938-0.171 2.881-0.171 14.436 0 26.744 10.933 28.24 25.58 1.496 15.651-9.879 29.586-25.48 31.071zM375.487 770.861l9.156 54.553c7.278 43.289 9.216 54.935 65.255 54.935h124.024c56.27 0 58.549-13.924 65.315-55.487l9.387-55.427c-91.347 3.755-182.503 4.467-273.137 1.426zM838.003 598.95c-14.647 1.114-29.124-10.812-30.178-26.524l-30.75-476.652c-5.060-72.584-7.379-105.713-113.252-105.713h-303.977c-105.874 0-108.193 33.129-113.252 105.542l-30.74 476.823c-1.044 15.701-15.541 27.517-30.188 26.524-15.651-0.994-27.528-14.527-26.534-30.178l30.75-477.003c5.22-74.29 11.154-158.529 169.964-158.529h303.977c158.8 0 164.744 84.239 169.964 158.7l30.75 476.833c0.994 15.641-10.893 29.184-26.534 30.178zM432.76 250.529c-15.701 0-28.411-12.71-28.411-28.411s12.71-28.411 28.411-28.411h157.696c15.701 0 28.411 12.71 28.411 28.411s-12.71 28.411-28.411 28.411h-157.696zM658.824 411.568c0 15.701-12.71 28.411-28.411 28.411h-236.715c-15.691 0-28.411-12.71-28.411-28.411s12.72-28.411 28.411-28.411h236.715c15.701-0.010 28.411 12.7 28.411 28.411z" />
<glyph unicode="&#xe926;" glyph-name="bell" d="M511.789 727.642c-14.657 0-26.554-11.896-26.554-26.544v-157.154c0-14.657 11.896-26.554 26.554-26.554 14.647 0 26.554 11.896 26.554 26.554v157.154c0 14.647-11.907 26.544-26.554 26.544zM939.912 303.285l-59.964 100.091c-13.824 22.849-25.921 66.741-25.921 93.877v99.157c-0.512 187.874-153.62 340.751-341.303 340.751-187.914 0-340.811-152.897-340.811-340.821v-99.087c0-27.618-11.856-70.606-25.961-93.937l-59.964-100.091c-22.016-37.025-26.644-77.623-12.961-114.407 13.593-36.603 43.45-64.211 84.058-77.764 58.268-19.376 117.76-33.862 178.056-43.49 8.543-30.017 24.556-57.936 46.943-80.304 34.324-34.324 81.599-54.021 129.677-54.021 84.038 0 154.915 56.802 176.66 133.983 61.119 9.628 121.444 24.195 180.505 43.831 37.908 12.659 67.594 41.372 81.498 78.808 13.965 37.567 10.12 78.898-10.511 113.423zM511.759-13.683c-34.103 0-67.704 14.035-92.14 38.47-11.937 11.937-21.353 23.11-27.899 35.368 40.187-4.347 80.645-6.716 121.294-6.716 40.548 0 80.906 2.359 120.993 6.686-18.522-46.12-66.259-73.808-122.248-73.808zM900.658 208.314c-8.262-22.267-25.961-39.374-48.489-46.873-219.166-72.895-459.294-72.824-678.31 0-25.028 8.333-43.179 24.646-51.090 45.899-7.951 21.363-4.809 45.799 8.814 68.638l59.904 99.95c18.793 31.172 33.521 84.47 33.521 121.314v99.087c0 158.65 129.084 287.734 287.724 287.734 158.459 0 287.764-129.124 288.216-287.734v-99.087c0-36.844 14.717-90.142 33.491-121.244l59.934-99.981c12.288-20.59 14.607-45.267 6.285-67.704z" />
<glyph unicode="&#xe927;" glyph-name="check-3" d="M663.913 570.468l-209.759-210.191-94.891 95.292c-10.772 10.842-28.22 10.772-38.982 0.080-10.762-10.732-10.842-28.18-0.080-38.982l114.397-114.889c5.17-5.21 12.168-8.112 19.526-8.112 7.319 0 14.316 2.901 19.516 8.072l229.306 229.747c10.742 10.802 10.742 28.24-0.030 39.022-10.802 10.692-28.28 10.722-39.002-0.040zM986.795 513.466l-64.643 75.053c-7.821 9.045-15.541 29.756-15.541 41.783v80.685c0 65.717-53.479 119.196-119.226 119.196h-80.685c-12.248 0-32.527 7.57-41.823 15.611l-75.224 64.783c-42.135 35.499-113.734 35.459-155.307-0.11l-75.154-64.241c-9.075-7.861-29.756-15.581-41.743-15.581h-82.161c-65.707 0-119.196-53.439-119.196-119.155v-81.689c0-11.886-7.489-32.166-15.26-41.502l-64.211-75.585c-36.322-43.209-36.322-110.903 0.070-154.232l63.96-75.334c7.941-9.507 15.43-29.756 15.43-41.663v-81.157c0-65.757 53.489-119.226 119.196-119.226h82.161c12.248 0 32.527-7.58 41.823-15.621l75.224-64.743c21.032-17.739 48.67-27.497 77.734-27.497 29.184 0 56.701 9.808 77.633 27.678l75.123 64.632c8.995 7.861 29.676 15.551 41.703 15.551h80.685c65.747 0 119.226 53.469 119.226 119.226v80.685c0 12.248 7.539 32.517 15.621 41.813l64.743 75.234c36.914 43.791 36.874 112.018-0.161 155.407zM945.011 393.808l-64.492-74.913c-16.846-19.386-29.043-52.144-29.043-77.884v-80.685c0-35.348-28.742-64.1-64.1-64.1h-80.685c-25.339 0-58.83-12.489-77.784-28.973l-74.943-64.492c-21.715-18.603-62.022-18.382-83.737-0.080l-74.943 64.502c-19.426 16.836-52.144 29.043-77.854 29.043h-82.161c-35.318 0-64.060 28.742-64.060 64.1v81.157c0 24.576-12.137 57.675-28.351 77.171l-64.040 75.405c-18.944 22.538-18.944 60.657-0.1 83.085l64.311 75.696c16.043 19.356 28.18 52.405 28.18 76.961v81.689c0 35.318 28.742 64.030 64.060 64.030h82.161c25.279 0 58.729 12.489 77.704 28.933l75.023 64.1c21.705 18.663 62.022 18.301 83.737 0.070l74.943-64.572c19.426-16.796 52.144-29.003 77.854-29.003h80.685c35.348 0 64.1-28.742 64.1-64.060v-80.685c0-25.309 12.489-58.79 28.963-77.814l64.502-74.913c19.275-22.568 19.205-61.048 0.070-83.767z" />
<glyph unicode="&#xe928;" glyph-name="remove-3" d="M986.795 513.466l-64.643 75.053c-7.821 9.045-15.541 29.756-15.541 41.783v80.685c0 65.717-53.479 119.196-119.226 119.196h-80.685c-12.248 0-32.527 7.57-41.823 15.611l-75.224 64.783c-42.135 35.499-113.734 35.459-155.307-0.11l-75.154-64.241c-9.075-7.861-29.756-15.581-41.743-15.581h-82.161c-65.707 0-119.196-53.439-119.196-119.155v-81.689c0-11.886-7.489-32.166-15.26-41.502l-64.211-75.585c-36.322-43.209-36.322-110.903 0.070-154.232l63.96-75.334c7.941-9.507 15.43-29.756 15.43-41.663v-81.157c0-65.757 53.489-119.226 119.196-119.226h82.161c12.248 0 32.527-7.58 41.823-15.621l75.224-64.743c21.032-17.739 48.67-27.497 77.734-27.497 29.184 0 56.701 9.808 77.633 27.678l75.123 64.632c8.995 7.861 29.676 15.551 41.703 15.551h80.685c65.747 0 119.226 53.469 119.226 119.226v80.685c0 12.248 7.539 32.517 15.621 41.813l64.743 75.234c36.914 43.791 36.874 112.018-0.161 155.407zM945.011 393.808l-64.492-74.913c-16.846-19.386-29.043-52.144-29.043-77.884v-80.685c0-35.348-28.742-64.1-64.1-64.1h-80.685c-25.339 0-58.83-12.489-77.784-28.973l-74.943-64.492c-21.715-18.603-62.022-18.382-83.737-0.080l-74.943 64.502c-19.426 16.836-52.144 29.043-77.854 29.043h-82.161c-35.318 0-64.060 28.742-64.060 64.1v81.157c0 24.576-12.137 57.675-28.351 77.171l-64.040 75.405c-18.944 22.538-18.944 60.657-0.1 83.085l64.311 75.696c16.043 19.356 28.18 52.405 28.18 76.961v81.689c0 35.318 28.742 64.030 64.060 64.030h82.161c25.279 0 58.729 12.489 77.704 28.933l75.023 64.1c21.705 18.663 62.022 18.301 83.737 0.070l74.943-64.572c19.426-16.796 52.144-29.003 77.854-29.003h80.685c35.348 0 64.1-28.742 64.1-64.060v-80.685c0-25.309 12.489-58.79 28.963-77.814l64.502-74.913c19.275-22.568 19.205-61.048 0.070-83.767zM668.913 592.103c-13.683 13.683-35.84 13.683-49.533 0l-107.379-107.369-107.379 107.369c-13.683 13.683-35.84 13.683-49.533 0-13.673-13.663-13.673-35.83 0-49.513l107.389-107.389-107.389-107.389c-13.673-13.673-13.673-35.84 0-49.513 6.847-6.847 15.782-10.26 24.767-10.26s17.92 3.423 24.767 10.26l107.379 107.369 107.379-107.369c6.847-6.847 15.782-10.26 24.767-10.26s17.92 3.423 24.767 10.26c13.673 13.663 13.673 35.83 0 49.513l-107.389 107.389 107.389 107.389c13.673 13.683 13.673 35.85 0 49.513z" />
<glyph unicode="&#xe929;" glyph-name="arrow-left" d="M973.262 475.929h-824.27l259.945 259.885c15.892 15.892 15.892 41.643 0 57.545-15.902 15.902-41.653 15.902-57.555 0l-329.417-329.306c-15.892-15.902-15.892-41.653 0-57.555l329.407-329.417c7.951-7.941 18.342-11.967 28.722-11.967 10.441 0 20.882 4.026 28.833 11.967 15.892 15.902 15.892 41.653 0 57.555l-259.935 259.885h824.27c22.468 0 40.699 18.221 40.699 40.699s-18.221 40.709-40.699 40.709z" />
<glyph unicode="&#xe92a;" glyph-name="arrow-top" d="M552.729-26.062v824.27l259.885-259.945c15.892-15.892 41.643-15.892 57.545 0 15.902 15.902 15.902 41.653 0 57.555l-329.306 329.417c-15.902 15.892-41.653 15.892-57.555 0l-329.417-329.407c-7.941-7.951-11.967-18.342-11.967-28.722 0-10.441 4.026-20.882 11.967-28.833 15.902-15.892 41.653-15.892 57.555 0l259.885 259.945v-824.27c0-22.468 18.221-40.699 40.699-40.699s40.709 18.211 40.709 40.689z" />
<glyph unicode="&#xe92b;" glyph-name="arrow-right" d="M50.738 394.471h824.27l-259.935-259.875c-15.892-15.892-15.892-41.643 0-57.545 15.902-15.902 41.653-15.902 57.555 0l329.417 329.306c15.892 15.902 15.892 41.653 0 57.555l-329.417 329.407c-7.951 7.941-18.342 11.967-28.722 11.967-10.441 0-20.882-4.026-28.833-11.967-15.892-15.902-15.892-41.653 0-57.555l259.945-259.885h-824.28c-22.478 0-40.699-18.231-40.699-40.699s18.221-40.709 40.699-40.709z" />
<glyph unicode="&#xe92c;" glyph-name="arrow-bottom, arrow-down" d="M471.271 896.462v-824.27l-259.875 259.935c-15.892 15.892-41.643 15.892-57.545 0-15.902-15.902-15.902-41.653 0-57.555l329.306-329.417c15.902-15.892 41.653-15.892 57.555 0l329.407 329.417c7.941 7.951 11.967 18.342 11.967 28.722 0 10.441-4.026 20.882-11.967 28.833-15.902 15.892-41.653 15.892-57.555 0l-259.885-259.935v824.27c0 22.478-18.231 40.699-40.699 40.699s-40.709-18.221-40.709-40.699z" />
<glyph unicode="&#xe92d;" glyph-name="arrow-circle-bottom" d="M1013.941 435.2c0 277.223-224.738 501.961-501.961 501.961s-501.961-224.738-501.961-501.961 224.738-501.961 501.961-501.961 501.961 224.738 501.961 501.961zM485.386 294.541l-177.192 177.192c-7.509 7.509-11.043 17.057-11.043 26.594 0 9.507 3.534 19.044 11.043 26.594 14.577 14.547 38.631 14.547 53.208 0l150.588-150.588 150.588 150.588c14.577 14.547 38.631 14.547 53.208 0 14.567-14.537 14.567-38.661 0-53.198l-177.192-177.192c-14.587-14.557-38.641-14.557-53.208 0.010z" />
<glyph unicode="&#xe92e;" glyph-name="arrow-circle-left" d="M512-66.761c277.223 0 501.961 224.738 501.961 501.961s-224.738 501.961-501.961 501.961-501.961-224.738-501.961-501.961 224.738-501.961 501.961-501.961zM371.341 461.794l177.202 177.202c7.509 7.509 17.057 11.043 26.594 11.043 9.507 0 19.044-3.534 26.594-11.043 14.547-14.577 14.547-38.631 0-53.208l-150.588-150.588 150.588-150.588c14.547-14.577 14.547-38.631 0-53.208-14.537-14.567-38.661-14.567-53.198 0l-177.192 177.192c-14.567 14.577-14.567 38.631 0 53.198z" />
<glyph unicode="&#xe92f;" glyph-name="arrow-circle-right" d="M511.98 937.141c-277.223 0-501.961-224.738-501.961-501.961s224.738-501.961 501.961-501.961 501.961 224.738 501.961 501.961-224.738 501.961-501.961 501.961zM652.639 408.586l-177.192-177.192c-7.509-7.509-17.057-11.043-26.594-11.043-9.507 0-19.044 3.534-26.594 11.043-14.547 14.577-14.547 38.631 0 53.208l150.588 150.588-150.588 150.588c-14.547 14.577-14.547 38.631 0 53.208 14.537 14.567 38.661 14.567 53.198 0l177.192-177.192c14.557-14.587 14.557-38.641-0.010-53.208z" />
<glyph unicode="&#xe930;" glyph-name="arrow-circle-top" d="M10.039 435.18c0-277.223 224.738-501.961 501.961-501.961s501.961 224.738 501.961 501.961-224.738 501.961-501.961 501.961-501.961-224.738-501.961-501.961zM538.594 575.839l177.192-177.192c7.509-7.509 11.043-17.057 11.043-26.594 0-9.507-3.534-19.044-11.043-26.594-14.577-14.547-38.631-14.547-53.208 0l-150.588 150.588-150.588-150.588c-14.577-14.547-38.631-14.547-53.208 0-14.567 14.537-14.567 38.661 0 53.198l177.192 177.192c14.587 14.557 38.641 14.557 53.208-0.010z" />
<glyph unicode="&#xe931;" glyph-name="arrow-rhombus-bottom" d="M684.233 14.205l248.611 248.651c53.017 52.937 81.037 112.55 81.037 172.373 0 59.763-28.019 119.376-81.037 172.373l-248.33 248.31c-53.138 53.158-112.831 81.247-172.654 81.247-59.784 0.050-119.396-27.909-172.413-80.916l-248.33-248.37c-52.977-52.937-80.996-112.55-81.037-172.313v-0.060c0-59.773 28.040-119.386 81.037-172.373l248.802-248.812 9.959-9.678c50.076-46.642 106.115-71.349 162.043-71.399 59.703 0 119.316 27.969 172.313 80.966zM480.397 277.936l-0.040 423.635 0.181 3.935c0.763 7.278 3.885 13.824 9.035 18.964 5.923 5.963 13.844 9.236 21.564 9.236l3.885-0.171c15.842-1.636 28.25-15.4 28.25-31.302v-458.059l89.61 89.6c12.298 12.248 32.256 12.248 44.514 0 11.766-11.796 11.766-32.728 0-44.524l-143.3-143.31c-12.278-12.298-32.236-12.298-44.534 0l-143.27 143.26c-11.806 11.806-11.786 32.838-0.040 44.574 12.278 12.248 32.276 12.248 44.534 0l89.61-89.6v33.762z" />
<glyph unicode="&#xe932;" glyph-name="arrow-rhombus-left" d="M91.005 252.908l248.651-248.611c52.937-53.017 112.55-81.037 172.373-81.037 59.763 0 119.376 28.019 172.373 81.037l248.31 248.33c53.158 53.138 81.247 112.831 81.247 172.654 0.050 59.784-27.909 119.396-80.916 172.413l-248.37 248.33c-52.937 52.977-112.55 80.996-172.313 81.037h-0.060c-59.773 0-119.386-28.040-172.373-81.037l-248.812-248.802-9.678-9.959c-46.642-50.086-71.349-106.125-71.399-162.043 0-59.703 27.969-119.316 80.966-172.313zM354.736 456.744l427.57-0.141c7.278-0.763 13.824-3.885 18.964-9.035 5.963-5.923 9.236-13.844 9.236-21.564l-0.171-3.885c-1.636-15.842-15.4-28.25-31.302-28.25h-458.059l89.6-89.61c12.248-12.298 12.248-32.256 0-44.514-11.796-11.766-32.728-11.766-44.524 0l-143.31 143.3c-12.298 12.278-12.298 32.236 0 44.534l143.26 143.27c11.806 11.806 32.838 11.786 44.574 0.040 12.248-12.278 12.248-32.276 0-44.534l-89.6-89.61h33.762z" />
<glyph unicode="&#xe933;" glyph-name="arrow-rhombus-right" d="M932.974 607.433l-248.651 248.611c-52.937 53.017-112.55 81.037-172.373 81.037-59.763 0-119.376-28.019-172.373-81.037l-248.31-248.33c-53.158-53.138-81.247-112.821-81.247-172.644-0.050-59.784 27.909-119.396 80.916-172.413l248.37-248.33c52.937-52.977 112.55-80.996 172.313-81.037h0.060c59.773 0 119.386 28.040 172.373 81.037l248.812 248.802 9.678 9.959c46.642 50.076 71.349 106.115 71.399 162.043 0 59.693-27.969 119.306-80.966 172.303zM669.244 403.597l-427.57 0.141c-7.278 0.763-13.824 3.885-18.964 9.035-5.963 5.923-9.236 13.844-9.236 21.564l0.171 3.885c1.636 15.842 15.4 28.25 31.302 28.25h458.059l-89.6 89.61c-12.248 12.298-12.248 32.256 0 44.514 11.796 11.766 32.728 11.766 44.524 0l143.31-143.29c12.298-12.278 12.298-32.236 0-44.534l-143.26-143.27c-11.806-11.806-32.838-11.786-44.574-0.040-12.248 12.278-12.248 32.276 0 44.534l89.6 89.61h-33.762z" />
<glyph unicode="&#xe934;" glyph-name="arrow-rhombus-top" d="M339.747 856.174l-248.611-248.651c-53.017-52.937-81.037-112.55-81.037-172.373 0-59.763 28.019-119.376 81.037-172.373l248.33-248.31c53.138-53.158 112.821-81.247 172.644-81.247 59.784-0.050 119.396 27.909 172.413 80.916l248.33 248.37c52.977 52.937 80.996 112.55 81.037 172.313v0.060c0 59.773-28.040 119.386-81.037 172.373l-248.792 248.812-9.959 9.678c-50.076 46.642-106.115 71.349-162.043 71.399-59.703 0-119.316-27.969-172.313-80.966zM543.583 592.444l0.040-423.635-0.181-3.935c-0.763-7.278-3.885-13.824-9.035-18.964-5.923-5.963-13.844-9.236-21.564-9.236l-3.885 0.171c-15.842 1.636-28.25 15.4-28.25 31.302v458.059l-89.61-89.6c-12.298-12.248-32.256-12.248-44.514 0-11.766 11.796-11.766 32.728 0 44.524l143.29 143.31c12.278 12.298 32.236 12.298 44.534 0l143.27-143.26c11.806-11.806 11.786-32.838 0.040-44.574-12.278-12.248-32.276-12.248-44.534 0l-89.61 89.6v-33.762z" />
<glyph unicode="&#xe935;" glyph-name="bars" d="M72.784 748.925c0 34.706 28.040 62.745 62.745 62.745h752.941c34.706 0 62.745-28.040 62.745-62.745s-28.040-62.745-62.745-62.745h-752.941c-34.706 0-62.745 28.040-62.745 62.745zM72.784 435.2c0 34.706 28.040 62.745 62.745 62.745h752.941c34.706 0 62.745-28.040 62.745-62.745s-28.040-62.745-62.745-62.745h-752.941c-34.706 0-62.745 28.040-62.745 62.745zM951.216 121.475c0-34.706-28.040-62.745-62.745-62.745h-752.941c-34.706 0-62.745 28.040-62.745 62.745s28.040 62.745 62.745 62.745h752.941c34.706 0 62.745-28.040 62.745-62.745z" />
<glyph unicode="&#xe936;" glyph-name="add-to-cart" d="M493.939 175.174c-0.040-46.813 11.545-92.993 33.802-134.214 22.157-41.231 54.232-76.358 93.355-102.179h-492.925c-16.705 0-33.33 3.514-48.57 10.431-15.33 6.887-28.943 16.946-40.016 29.505-11.133 12.559-19.396 27.377-24.335 43.349-4.899 16.073-6.375 32.919-4.297 49.584l70.927 567.346c3.554 28.531 17.488 54.854 39.063 73.919 21.544 19.064 49.393 29.586 78.155 29.586h58.448v-141.834c0-6.275 2.49-12.278 6.917-16.705 4.427-4.437 10.431-6.927 16.725-6.927 6.234 0 12.278 2.49 16.705 6.927 4.427 4.427 6.917 10.431 6.917 16.705v141.834h283.628v-141.834c0-6.275 2.49-12.278 6.917-16.705 4.427-4.437 10.431-6.927 16.725-6.927 6.275 0 12.278 2.49 16.705 6.927 4.427 4.427 6.917 10.431 6.917 16.705v141.834h58.408c28.803 0 56.611-10.521 78.216-29.586 21.544-19.064 35.448-45.387 39.002-73.919l23.181-185.836c-41.181 8.353-83.747 7.479-124.607-2.63-40.86-10.069-78.898-29.084-111.485-55.688-32.607-26.594-58.88-60.115-76.981-98.073-18.081-38.029-27.457-79.541-27.497-121.595zM635.723 742.5h-47.275c0 37.637-14.958 73.698-41.552 100.282-26.604 26.594-62.665 41.552-100.292 41.552s-73.688-14.948-100.272-41.552c-26.644-26.584-41.552-62.645-41.552-100.282h-47.275c0 50.146 19.898 98.254 55.356 133.712 35.509 35.448 83.566 55.406 133.742 55.406 50.196 0 98.254-19.948 133.722-55.406 35.459-35.459 55.396-83.566 55.396-133.712zM777.567 411.568c-46.723 0-92.431-13.854-131.313-39.846-38.882-26.002-69.22-62.896-87.080-106.054-17.92-43.219-22.568-90.765-13.473-136.614 9.136-45.839 31.664-87.954 64.723-121.013s75.154-55.587 121.003-64.723c45.859-9.096 93.415-4.427 136.624 13.483 43.159 17.86 80.063 48.198 106.054 87.080 25.992 38.862 39.856 84.56 39.856 131.293-0.1 62.695-25.038 122.77-69.351 167.043-44.273 44.313-104.358 69.251-167.043 69.351zM848.474 151.532h-47.275v-47.285c0-6.275-2.49-12.278-6.917-16.705-4.427-4.437-10.431-6.927-16.705-6.927-6.295 0-12.298 2.49-16.725 6.927-4.427 4.427-6.917 10.431-6.917 16.705v47.285h-47.275c-6.275 0-12.278 2.49-16.705 6.917-4.447 4.427-6.937 10.431-6.937 16.715 0 6.275 2.49 12.288 6.937 16.715 4.427 4.427 10.431 6.917 16.705 6.917h47.275v47.275c0 6.285 2.49 12.288 6.917 16.715s10.431 6.927 16.725 6.927c6.275 0 12.278-2.5 16.705-6.927s6.917-10.431 6.917-16.715v-47.275h47.275c6.295 0 12.298-2.49 16.725-6.917s6.917-10.441 6.917-16.715c0-6.285-2.49-12.288-6.917-16.715s-10.431-6.917-16.725-6.917z" />
<glyph unicode="&#xe937;" glyph-name="added-to-cart" d="M493.909 175.184c0-46.813 11.625-92.993 33.802-134.214 22.197-41.221 54.292-76.358 93.395-102.169h-492.845c-16.826 0-33.33 3.504-48.67 10.431-15.24 6.887-28.903 16.946-39.976 29.495s-19.396 27.387-24.335 43.349c-4.939 16.073-6.415 32.919-4.297 49.584l70.917 567.316c3.584 28.541 17.448 54.854 39.063 73.919 21.584 19.064 49.393 29.586 78.195 29.586h58.358v-141.824c0-6.285 2.51-12.288 6.937-16.715s10.431-6.917 16.705-6.917 12.278 2.49 16.705 6.917 6.937 10.431 6.937 16.715v141.834h283.648v-141.824c0-6.285 2.49-12.288 6.917-16.715s10.451-6.917 16.725-6.917 12.278 2.49 16.705 6.917 6.917 10.431 6.917 16.715v141.824h58.408c28.803 0 56.611-10.521 78.216-29.586 21.544-19.064 35.448-45.387 39.002-73.919l23.181-185.826c-41.181 8.353-83.747 7.479-124.607-2.63-40.86-10.069-78.898-29.084-111.485-55.688-32.607-26.584-58.92-60.105-76.961-98.063-18.040-38.039-27.457-79.541-27.558-121.595zM635.733 742.49h-47.275c0 37.627-14.958 73.688-41.552 100.282-26.584 26.584-62.645 41.552-100.272 41.552s-73.688-14.958-100.272-41.552c-26.604-26.594-41.552-62.655-41.552-100.282h-47.295c0 50.146 19.958 98.254 55.416 133.702 35.448 35.459 83.566 55.406 133.702 55.406s98.254-19.938 133.702-55.406c35.459-35.448 55.396-83.556 55.396-133.702zM777.577 411.568c-130.259 0-236.393-106.145-236.393-236.383 0-130.249 106.135-236.383 236.393-236.383 130.239 0 236.373 106.135 236.373 236.383 0 130.229-106.135 236.383-236.373 236.383zM890.599 229.567l-134.084-134.074c-3.333-3.283-7.76-5.18-12.509-5.18-4.769 0-9.196 1.887-12.509 5.18l-66.941 66.941c-6.847 6.837-6.847 18.191 0 25.018 6.867 6.837 18.231 6.837 25.118 0l54.332-54.382 121.475 121.515c6.887 6.877 18.231 6.877 25.118 0 6.827-6.827 6.827-17.95 0-25.018z" />
<glyph unicode="&#xe938;" glyph-name="check" d="M992.125 657.82l-569.444-547.358c-14.095-13.513-33.18-21.193-53.238-21.193-20.139 0-39.213 7.69-53.268 21.193l-284.311 273.217c-29.094 27.979-29.094 74.28 0 102.34 29.114 27.969 77.392 27.969 106.486 0l231.093-222.027 516.216 496.158c29.174 27.979 77.292 27.979 106.466 0 29.124-27.979 29.124-73.367 0-102.33z" />
<glyph unicode="&#xe939;" glyph-name="remove1" d="M988.321 84.42l-350.941 350.991 350.941 350.961c16.535 16.535 25.64 38.781 25.64 62.665 0 23.873-9.096 46.12-25.64 62.635-16.535 16.545-38.771 25.66-62.655 25.66-23.873 0-46.13-9.106-62.665-25.64l-350.961-350.951-350.971 350.951c-16.535 16.525-38.761 25.64-62.615 25.64-23.873 0-46.15-9.106-62.705-25.66-16.585-16.535-25.71-38.771-25.71-62.635 0-23.873 9.126-46.12 25.69-62.645l350.971-350.981-350.951-350.971c-16.585-16.555-25.71-38.802-25.71-62.665 0-23.883 9.126-46.12 25.69-62.645 16.755-16.836 38.982-26.062 62.685-26.062 23.693 0 45.929 9.226 62.615 26.002l351.011 350.981 350.961-350.941c21.444-21.534 45.909-26.042 62.665-26.042 16.705 0 41.131 4.508 62.655 26.042 16.535 16.535 25.64 38.771 25.64 62.665 0 23.873-9.096 46.12-25.64 62.645z" />
<glyph unicode="&#xe93a;" glyph-name="delivery-by" d="M1010.437 448.432l-81.298 142.547c-0.040 0.040-0.070 0.080-0.141 0.12l-81.267 142.155c-21.966 37.808-62.514 61.289-105.803 61.289h-60.737v115.832c0 14.768-11.967 26.724-26.724 26.724h-427.64c-78.477 0-150.97-42.546-189.189-111.114-7.168-12.88-2.54-29.154 10.33-36.372 12.951-7.238 29.164-2.53 36.372 10.33 28.782 51.612 83.386 83.707 142.477 83.707h400.936v-448.432c0-37.667-30.67-68.297-68.327-68.297h-47.496c-14.758 0-26.734-11.957-26.734-26.724 0-14.748 11.977-26.724 26.734-26.724h47.496c67.172 0 121.816 54.603 121.816 121.746v305.885h60.697c24.325 0 47.154-13.292 59.482-34.525l58.358-102.079h-15.25c-40.93 0-74.2-33.29-74.2-74.27v-142.547c0-40.92 33.26-74.2 74.2-74.2h115.822v-115.822c0-63.859-51.963-115.822-115.822-115.822h-23.693c-1.566 6.957-3.765 13.704-6.485 20.199-0.562 1.275-1.355 2.429-1.948 3.704-2.5 5.471-5.281 10.762-8.563 15.741-1.395 2.118-3.032 4.036-4.558 6.074-2.891 3.865-5.813 7.59-9.146 11.083-1.948 2.058-4.006 3.925-6.094 5.843-3.373 3.062-6.827 5.943-10.511 8.664-2.329 1.707-4.698 3.313-7.138 4.839-3.895 2.47-7.931 4.588-12.107 6.606-2.58 1.215-5.050 2.47-7.69 3.514-4.708 1.887-9.577 3.233-14.477 4.528-2.399 0.592-4.668 1.436-7.138 1.887-7.449 1.436-15.109 2.329-23 2.329-7.901 0-15.561-0.904-23.010-2.329-2.429-0.452-4.739-1.295-7.138-1.887-4.899-1.295-9.778-2.691-14.436-4.528-2.65-1.044-5.15-2.299-7.73-3.514-4.136-2.018-8.172-4.136-12.037-6.586-2.51-1.546-4.869-3.152-7.208-4.899-3.654-2.691-7.098-5.532-10.401-8.584-2.128-1.958-4.216-3.825-6.194-5.923-3.273-3.453-6.194-7.138-9.045-10.963-1.526-2.058-3.203-3.996-4.628-6.194-3.233-4.939-5.993-10.2-8.463-15.591-0.632-1.335-1.466-2.51-2.018-3.865-2.721-6.455-4.899-13.192-6.475-20.159h-142.517c-1.526 6.867-3.654 13.473-6.295 19.848-0.984 2.329-2.369 4.447-3.484 6.706-2.128 4.357-4.287 8.664-6.897 12.71-1.747 2.65-3.725 5.020-5.642 7.489-2.55 3.333-5.12 6.646-8.011 9.708-2.189 2.329-4.558 4.488-6.957 6.646-3.062 2.781-6.194 5.431-9.527 7.901-2.58 1.887-5.19 3.684-7.941 5.391-3.614 2.259-7.369 4.257-11.234 6.114-2.781 1.335-5.501 2.721-8.393 3.865-4.417 1.747-9.005 3.042-13.673 4.257-2.61 0.663-5.12 1.566-7.79 2.098-7.208 1.355-14.617 2.179-22.207 2.219-0.241 0-0.452 0.080-0.663 0.080 0 0-0.030 0-0.070 0 0 0 0 0-0.030 0-7.901 0-15.601-0.904-23.080-2.329-2.158-0.432-4.176-1.155-6.264-1.667-5.281-1.335-10.511-2.861-15.521-4.839-2.299-0.904-4.447-2.018-6.646-3.062-4.628-2.158-9.085-4.528-13.362-7.258-2.058-1.315-4.036-2.67-6.024-4.096-4.176-3.022-8.112-6.295-11.876-9.828-1.636-1.526-3.303-3.022-4.829-4.628-3.905-4.056-7.449-8.413-10.752-13.001-1.014-1.395-2.128-2.691-3.102-4.156-8.011-12.097-14.095-25.57-17.368-40.157h-23.733c-63.859 0-115.822 51.963-115.822 115.822 0 14.758-11.967 26.714-26.724 26.714s-26.724-11.957-26.724-26.724c0-93.335 75.937-169.271 169.271-169.271h24.054c12.258-54.332 60.697-95.081 118.603-95.081s106.365 40.749 118.583 95.081h142.858c12.258-54.332 60.627-95.081 118.583-95.081 57.936 0 106.396 40.749 118.633 95.081h23.913c93.345 0 169.281 75.937 169.281 169.271v141.864c0 0.231 0.141 0.452 0.141 0.683v95.021c0 4.628-1.215 9.216-3.524 13.212zM321.968-13.252c-37.657 0-68.317 30.67-68.317 68.357 0 37.647 30.63 68.257 68.247 68.277 37.657-0.020 68.287-30.63 68.287-68.277 0-0.080 0.070-0.141 0.070-0.251-0.141-37.557-30.7-68.106-68.287-68.106zM701.992-13.252c-37.657 0-68.287 30.67-68.287 68.357 0 37.647 30.63 68.277 68.287 68.277 37.687 0 68.357-30.63 68.357-68.277-0.010-37.687-30.67-68.357-68.357-68.357zM960.502 366.923h-115.822c-1.596 0-3.032 0.572-4.518 0.924-6.485 1.486-12.007 5.763-14.657 11.786-1.044 2.47-1.636 5.2-1.636 8.041v142.547c0 11.495 9.336 20.821 20.811 20.821h45.739l70.084-122.92v-61.199zM36.764 598.568h285.104c14.758 0 26.724 11.977 26.724 26.744 0 14.748-11.967 26.724-26.724 26.724h-285.104c-14.758 0.010-26.724-11.977-26.724-26.724 0-14.758 11.967-26.744 26.724-26.744zM36.764 456.021h190.062c14.758 0 26.724 11.977 26.724 26.724 0 14.768-11.967 26.744-26.724 26.744h-190.062c-14.758 0-26.724-11.977-26.724-26.744 0-14.738 11.967-26.724 26.724-26.724zM36.764 313.475h95.051c14.758 0 26.724 11.977 26.724 26.724 0 14.768-11.967 26.724-26.724 26.724h-95.051c-14.758 0-26.724-11.957-26.724-26.724 0-14.748 11.967-26.724 26.724-26.724z" />
<glyph unicode="&#xe93b;" glyph-name="order-returned" d="M812.946 354.445v161.551c0 49.313-33.661 106.396-76.459 129.827l-152.154 84.631c-39.745 21.906-105.803 21.454-144.193-0.552l-152.054-84.57c-42.877-23.803-76.459-80.826-76.459-129.787v-161.099c0-49.293 33.661-106.335 76.459-129.827l152.024-84.57c19.556-10.883 45.136-16.926 72.011-16.926 26.825 0 52.485 6.003 72.312 16.926l152.054 84.57c42.867 23.843 76.459 80.886 76.459 129.827zM314.037 598.618l152.375 84.741c11.545 6.606 28.361 10.391 46.11 10.391 17.539 0 34.314-3.704 45.939-10.079l152.195-84.691c8.282-4.508 16.083-11.686 23.11-20.119l-221.555-128.392-221.144 128.090c6.967 8.333 14.758 15.491 22.97 20.058zM313.906 271.41c-26.002 14.256-48.831 53.077-48.831 83.034v161.099c0 4.839 0.803 9.959 1.917 15.139l218.594-126.605v-224.176c-7.349 1.606-14.065 3.845-19.486 6.867l-152.195 84.641zM710.505 271.33l-151.944-84.49c-5.501-3.042-12.218-5.251-19.526-6.907v224.316l218.594 126.745c1.074-5.16 1.847-10.2 1.847-14.999v-161.551c0-29.766-22.899-68.608-48.971-83.115zM987.236 319.388c-14.768 0-26.734-11.957-26.734-26.724 0-151.763-111.124-278.096-256.281-301.879l23.221 38.671c7.59 12.669 3.484 29.064-9.186 36.683-12.77 7.63-29.134 3.494-36.683-9.176l-49.915-83.195c-4.939-8.232-5.080-18.552-0.311-26.905 4.739-8.373 13.603-13.573 23.251-13.573 198.164 0 359.374 161.22 359.374 359.374-0.010 14.758-11.977 26.724-26.734 26.724zM296.568 840.975c-7.62-12.629-3.514-29.064 9.156-36.643 12.559-7.65 29.023-3.474 36.643 9.156l49.905 83.155c4.979 8.232 5.12 18.552 0.351 26.905-4.739 8.373-13.603 13.573-23.251 13.573-198.124-0.010-359.334-161.22-359.334-359.344 0-14.768 11.967-26.744 26.724-26.744s26.734 11.977 26.734 26.744c0 151.763 111.084 278.056 256.241 301.839l-23.171-38.641z" />
<glyph unicode="&#xe93c;" glyph-name="high-rated-seller" d="M992.306 222.83l-170.928 170.968c31.634 54.463 49.112 116.013 49.112 180.093 0 197.752-160.888 358.651-358.641 358.651s-358.651-160.888-358.651-358.651c0-64.090 17.498-125.641 49.212-180.274l-170.727-170.787c-19.175-19.135-26.152-46.231-18.753-72.463 7.469-26.293 27.718-45.749 54.252-52.033l78.607-18.593c7.088-1.556 13.101-7.72 14.898-15.219l16.595-69.712c7.991-33.521 37.697-56.963 72.292-56.963 21.775 0 42.416 9.688 56.33 26.182l206.085 237.217 205.774-236.454c14.205-16.816 34.806-26.473 56.621-26.473 34.595 0 64.301 23.411 72.282 56.932l16.745 70.315c1.566 7.188 7.429 12.84 15.149 14.758l78.226 18.482c26.253 6.214 47.094 26.263 54.362 52.355 7.268 26.162 0.181 53.007-18.844 71.67zM511.839 879.194c168.328 0 305.283-136.965 305.283-305.293 0-60.988-17.649-119.698-50.879-169.582-48.259-71.449-124.215-119.447-209.257-131.855-4.126-0.733-8.333-1.114-12.569-1.636-5.833-0.723-11.676-1.285-17.689-1.626-9.758-0.562-19.617-0.522-29.586 0.030-6.285 0.351-12.539 0.944-18.793 1.747-4.166 0.522-8.302 0.904-12.469 1.626-84.239 12.268-160.196 60.306-208.344 131.574-33.34 50.056-50.989 108.755-50.989 169.713 0 168.338 136.965 305.303 305.293 305.303zM265.357-1.255c-5.21-6.224-11.465-7.539-15.802-7.539-8.232 0-17.719 4.929-20.349 15.982l-16.605 69.783c-6.636 27.377-28.301 48.901-54.915 54.774l-78.226 18.482c-10.672 2.54-14.175 11.113-15.189 14.697-1.004 3.504-2.5 12.539 5.15 20.179l163.077 163.117c8.895-10.903 18.522-21.052 28.521-30.77 0.522-0.492 1.074-0.974 1.566-1.466 8.403-8.061 17.087-15.671 26.182-22.849 0.592-0.492 1.185-0.944 1.777-1.395 9.276-7.228 18.793-14.005 28.682-20.289 0.311-0.181 0.632-0.381 0.944-0.592 41.542-26.263 88.054-44.183 136.995-51.371l-191.809-220.742zM959.759 165.476c-1.014-3.574-4.477-12.188-15.25-14.758l-78.406-18.522c-27.889-6.807-48.911-27.999-54.704-54.814l-16.605-69.742c-2.64-11.013-12.117-15.952-20.39-15.952-4.307 0-10.561 1.295-16.083 7.821l-191.458 219.989c88.024 13.171 168.297 59.462 224.637 128.723l163.258-163.298c7.399-7.248 5.933-16.003 5-19.446zM388.076 526.276c0.723-1.104 1.456-4.096 1.486-4.658l-11.364-48.831c-7.078-30.298 0.562-48.148 8.232-57.846 15.942-20.068 45.337-22.789 76.83-4.407l47.204 27.889 4.407 0.11 47.315-27.959c14.276-8.513 27.889-12.81 40.428-12.81 14.838 0 27.789 6.044 36.472 17.016 7.68 9.688 15.39 27.648 8.262 57.966l-11.354 48.841c-0.11 1.104 0.592 3.474 0.944 4.056l39.354 39.354c18.442 18.452 25.349 40.297 19.004 59.994-6.325 19.587-24.626 33.21-50.015 37.306l-50.578 8.513c-1.074 0.311-3.132 1.847-3.514 2.269l-27.989 56.029c-11.927 23.793-30.569 37.476-51.17 37.476-21.052 0-39.504-14.005-50.126-37.517l-27.688-55.437c-0.683-0.974-2.741-2.53-3.192-2.771l-50.919-8.573c-25.56-4.477-43.791-18.271-49.955-37.828-6.144-19.486 0.833-41.171 19.145-59.442l38.781-38.741zM602.634 424.438v26.674h0.040l-0.040-26.674zM389.19 609.712l50.788 8.553c16.776 2.841 33.902 15.561 41.683 30.981l28.411 56.902c0.833 1.767 1.596 3.192 2.299 4.347 0.934-1.325 2.008-3.032 3.132-5.24l27.989-55.999c7.74-15.491 25.148-28.24 42.165-30.981l50.959-8.573c2.811-0.452 4.899-1.074 6.355-1.636-0.863-1.385-2.259-3.192-4.377-5.311l-39.354-39.354c-13.483-13.483-19.697-35.77-15.179-53.84l11.354-48.911c0.763-3.152 1.144-5.793 1.325-7.881-1.948 0.803-4.387 1.978-7.329 3.715l-47.064 27.819c-8.262 5.040-18.753 7.811-29.555 7.811-10.762 0-21.253-2.771-29.174-7.64l-47.275-27.889c-3.022-1.777-5.491-2.921-7.429-3.684 0.171 2.048 0.552 4.658 1.285 7.78l11.465 49.363c3.855 18.201-2.57 40.639-15.28 53.348l-39.324 39.354c-2.078 2.088-3.474 3.855-4.347 5.22 1.476 0.572 3.584 1.225 6.475 1.747z" />
<glyph unicode="&#xe93d;" glyph-name="secure-transaction" d="M865.561 722.492c-18.793 50.397-59.231 93.686-105.663 111.335l-236.142 88.827c-43.53 16.464-117.87 16.494-161.411 0.030l-236.654-88.857c-64.843-24.456-115.652-98.073-115.652-167.565v-352.105c0-64.763 40.438-145.539 91.979-183.888l203.495-152.154c37.205-27.528 86.177-42.707 137.919-42.707 51.792 0 100.683 15.179 137.758 42.777l204.388 153.329 5.642 4.799h56.31c124.908 0 165.356 38.43 166.43 158.349v263.71c0 117.911-37.245 159.603-148.4 164.121zM960.502 558.371v-58.78h-573.761v59.272c0 57.314 7.098 84.43 28.321 97.822 12.77 7.489 30.519 10.34 55.055 11.806 4.558 0 9.256 0.1 14.095 0.241 4.769 0.1 9.708 0.231 14.888 0.231h346.905c1.395 0 2.58 0.693 3.895 0.914 94.77-0.693 110.602-16.926 110.602-111.506zM549.165 21.012c-27.809-20.741-65.365-32.156-105.733-32.156s-78.055 11.455-106.014 32.115l-203.445 152.134c-37.557 27.939-70.485 93.867-70.485 141.051v352.105c0 47.114 37.135 100.964 81.016 117.519l236.664 88.887c15.691 5.913 38.249 9.296 61.842 9.296 23.632 0 46.15-3.383 61.872-9.336l236.112-88.817c25.58-9.708 49.805-32.919 65.255-60.416h-306.547c-5.662 0-11.033-0.151-16.213-0.281l-14.507-0.271c-50.045-3.233-82.271-15.832-102.701-37.446-26.654-27.598-33.581-70.335-33.581-127.478v-258.138c0.522-124.105 41.060-163.92 166.912-163.92h202.792l-153.239-114.849zM847.531 189.771h-347.829c-97.129 0-112.961 15.561-112.961 111.064v145.298h573.751v-151.221c-0.793-90.413-16.625-105.141-112.961-105.141zM542.931 307.612h-63.197c-14.758 0-26.724-11.967-26.724-26.724s11.967-26.734 26.724-26.734h63.197c14.768 0 26.734 11.977 26.734 26.734s-11.967 26.724-26.734 26.724zM797.967 307.612h-155.357c-14.758 0-26.724-11.967-26.724-26.724s11.967-26.734 26.724-26.734h155.367c14.758 0 26.724 11.977 26.724 26.734s-11.977 26.724-26.734 26.724z" />
<glyph unicode="&#xe93e;" glyph-name="star" d="M598.729 864.648l88.355-178.126c11.977-24.807 44.152-48.56 71.278-53.117l160.075-26.815c102.35-17.187 126.474-92.16 52.706-165.968l-124.516-125.48c-21.042-21.283-32.567-62.283-26.122-91.638l35.649-155.357c28.14-122.95-36.623-170.526-144.525-106.285l-150.036 89.62c-27.116 16.143-71.8 16.143-99.368 0l-150.036-89.62c-107.43-64.241-172.664-16.143-144.585 106.285l35.589 155.357c6.566 29.355-4.959 70.355-26.062 91.638l-124.466 125.48c-73.296 73.818-49.704 148.781 52.706 165.968l160.075 26.815c26.584 4.558 58.709 28.311 70.766 53.117l88.355 178.126c48.158 96.658 126.474 96.658 174.16 0z" />
<glyph unicode="&#xe93f;" glyph-name="voucher-purchased" d="M748.624 842.662h-473.751c-198.315 0-260.166-56.29-264.824-240.901-0.221-7.65 2.721-15.099 8.112-20.59 5.321-5.491 12.659-8.553 20.309-8.553 75.505 0 136.915-61.631 136.915-137.417 0-75.354-61.51-137.015-137.075-137.417-7.61-0.060-14.928-3.172-20.269-8.664-5.321-5.431-8.212-12.82-7.991-20.49 4.658-184.581 66.51-240.891 264.824-240.891h473.751c205.814 0 265.336 59.533 265.336 265.336v284.27c0 205.804-59.523 265.316-265.336 265.316zM957.109 293.075c0-173.387-35.087-208.474-208.484-208.474h-350.61v137.417c0 15.701-12.77 28.431-28.421 28.431-15.772 0-28.431-12.73-28.431-28.431v-137.417h-66.289c-156.953 0-199.088 29.043-206.858 158.73 92.833 14.667 164.221 95.332 164.221 191.88 0 97.039-71.339 177.724-164.221 191.98 7.77 129.586 49.975 158.63 206.858 158.63h66.299v-137.417c0-15.701 12.659-28.431 28.431-28.431 15.651 0 28.421 12.73 28.421 28.431v137.417h350.6c173.387 0 208.484-35.097 208.484-208.474v-284.27zM768.833 510.273l-60.627 8.764-27.256 55.075c-16.384 33.702-71.128 32.487-85.785 0.060l-26.875-55.135-60.627-8.764c-18.372-2.721-33.26-15.31-38.912-33.039-5.662-17.528-0.893-36.412 12.218-49.082l43.741-42.807-10.662-60.356c-2.44-14.095 1.335-28.411 10.491-39.293 14.095-16.826 38.972-22.056 59.231-11.605l54.242 28.702 54.081-28.612c6.937-3.704 14.717-5.702 22.488-5.702 14.205 0.060 27.648 6.335 36.914 17.318 9.106 10.883 12.941 25.158 10.441 39.133l-10.551 60.416 43.972 42.647c13.322 12.82 18.051 31.704 12.439 49.293-5.652 17.669-20.58 30.258-38.962 32.989zM709.21 423.605c-11.545-10.431-17.097-26.433-14.597-43.47l8.272-47.355-42.918 22.709c-13.432 6.666-29.877 6.937-44.413-0.271l-42.526-23.432 8.604 49.232c2.219 15.491-2.831 30.71-13.995 41.864l-34.374 33.651 48.028 6.937c16.324 2.389 29.525 12.338 36.091 26.584l20.711 42.466 21.203-42.847c7.108-14.005 20.43-23.763 36.031-26.212l47.807-6.937-33.923-32.919z" />
<glyph unicode="&#xe940;" glyph-name="invitations" d="M380.707 456.011c-0.883 0-1.897 0.060-2.801 0.12l-4.919 0.231c-1.114-0.12-7.901-0.683-8.965-0.351-129.958 4.377-231.745 109.919-231.745 240.319 0 132.769 108.002 240.821 240.821 240.821 132.749 0 240.76-108.062 240.76-240.821-0.512-130.45-102.47-235.942-232.157-240.319-0.331 0-0.663 0-0.994 0zM373.097 879.817c-101.175 0-183.487-82.312-183.487-183.487 0-99.318 77.432-179.662 176.319-183.015-0.1 0.392 9.628 0.492 15.511 0.1 97.923 4.156 174.702 84.219 175.074 183.035 0 101.055-82.301 183.366-183.416 183.366zM731.216 449.586c-15.079 0-31.985 10.983-33.611 25.65-1.727 15.721 4.427 29.957 20.179 31.684 6.586 0.663 13.141 0.663 19.135-0.060 70.154 3.022 128.783 63.88 128.783 138.802 0 76.429-62.153 138.591-138.531 138.591-15.842 0-28.662 12.82-28.662 28.662s12.82 28.662 28.662 28.662c108.002 0 195.865-87.923 195.865-195.925 0-105.884-82.864-191.88-188.647-195.865-1.054-0.090-2.118-0.201-3.172-0.201zM380.978-66.771c-96.236 0-186.84 25.138-255.036 70.787-64.060 42.606-99.428 100.723-99.489 163.649-0.12 63.096 35.218 121.515 99.448 164.513 68.508 45.468 159.172 70.435 255.408 70.435 96.256 0 186.749-25.018 254.705-70.375 64.060-42.606 99.388-100.784 99.489-163.73 0.060-63.096-35.197-121.495-99.428-164.493-68.247-45.648-158.84-70.787-255.096-70.787zM381.309 345.269c-85.042 0-164.493-21.604-223.624-60.808-47.706-31.925-73.959-73.417-73.899-116.686 0.060-43.179 26.313-84.37 73.959-116.083 58.9-39.414 138.2-61.139 223.232-61.139 85.062 0 164.332 21.725 223.172 61.139 47.767 31.985 74.079 73.417 74.019 116.746-0.040 43.179-26.293 84.39-73.959 116.083-58.659 39.203-137.838 60.747-222.901 60.747zM819.29 19.797c-13.272 0-25.198 9.296-27.999 22.839-3.253 15.45 6.706 30.69 22.237 33.862 31.232 6.566 59.613 19.034 81.96 36.232 28.943 21.665 44.725 49.784 44.725 79.24 0 29.495-15.782 57.605-44.454 79.099-21.946 16.745-49.212 28.843-81.298 36.121-15.45 3.474-25.138 18.824-21.604 34.274 3.413 15.45 18.683 25.259 34.254 21.604 40.137-9.055 74.923-24.626 103.253-46.231 42.606-31.985 67.172-77.573 67.172-124.868 0-47.315-24.566-92.843-67.393-124.918-28.903-22.177-65.295-38.41-105-46.642-1.948-0.452-3.905-0.612-5.853-0.612z" />
<glyph unicode="&#xe941;" glyph-name="amount-withdraw" d="M540.411 648.282c0 15.701-12.72 28.411-28.411 28.411-15.701 0-28.411-12.71-28.411-28.411v-18.482h-20.861c-53.499 0-97.059-45.277-97.059-100.884 0-63.799 35.127-84.51 65.978-95.493l51.943-18.091v-117.469h-10.883c-27.959 0-50.718 24.415-50.718 54.433 0 15.701-12.649 28.411-28.411 28.411-15.651 0-28.411-12.71-28.411-28.411 0-61.37 48.289-111.255 107.54-111.255h10.883v-18.924c0-15.701 12.71-28.411 28.411-28.411 15.691 0 28.411 12.71 28.411 28.411v18.924h21.303c53.489 0 97.049 45.217 97.049 100.824 0 64.643-37.557 85.394-65.917 95.503l-52.435 18.312v117.298h11.314c27.969 0 50.718-24.476 50.718-54.493 0-15.691 12.72-28.411 28.411-28.411 15.701 0 28.411 12.72 28.411 28.411 0 61.37-48.218 111.315-107.54 111.315h-11.314v18.482zM573.982 383.819c18.984-6.776 27.959-13.101 27.959-41.954 0-24.255-18.030-44.002-40.227-44.002h-21.303v97.661l33.571-11.706zM483.589 475.487l-33.079 11.545c-19.466 6.927-28.019 12.981-28.019 41.884 0 24.315 18.040 44.062 40.237 44.062h20.861v-97.491zM985.49 463.611c-15.701 0-28.411-12.71-28.411-28.411 0-245.429-199.65-445.089-445.079-445.089s-445.139 199.66-445.139 445.089 199.71 445.079 445.139 445.079c15.691 0 28.411 12.71 28.411 28.411s-12.72 28.411-28.411 28.411c-276.781 0-501.961-225.18-501.961-501.901s225.18-501.911 501.961-501.911c276.721 0 501.901 225.19 501.901 501.911 0 15.701-12.7 28.411-28.411 28.411zM1012.355 916.741c-0.281 0.893-0.221 1.837-0.562 2.721-2.881 6.997-8.433 12.599-15.48 15.491-2.941 1.205-6.044 1.656-9.216 1.877-0.552 0-1.004 0.271-1.546 0.271h-189.44c-15.701 0-28.411-12.71-28.411-28.411s12.71-28.411 28.411-28.411h120.792l-188.275-188.215c-11.093-11.093-11.093-29.074 0-40.177 5.552-5.552 12.82-8.323 20.088-8.323 7.278 0 14.537 2.771 20.088 8.323l188.336 188.275v-120.852c0-15.701 12.71-28.411 28.411-28.411s28.411 12.7 28.411 28.411v189.38c0 2.891-0.833 5.501-1.606 8.051z" />
<glyph unicode="&#xe942;" glyph-name="order-cancelled" d="M950.001 310.704v255.197c0 74.019-50.778 160.055-115.491 195.885l-245.66 136.172c-58.92 33.059-158.81 32.979-217.51 0.080l-245.76-136.262c-64.773-35.84-115.541-121.876-115.541-195.875v-260.528c0-73.969 50.768-160.005 115.541-195.885l245.67-136.192c29.465-16.515 68.066-25.63 108.805-25.63 40.729 0 79.34 9.116 108.584 25.57l65.004 35.88c39.002-38.631 92.451-61.39 148.661-61.39 51.903 0 101.466 18.884 138.852 52.495 16.786 14.115 31.071 31.122 42.074 49.905 20.129 32.627 30.74 70.395 30.74 109.337-0.010 59.261-24.606 112.791-63.97 151.241zM152.325 713.447l245.941 136.333c20.992 11.786 50.808 18.552 81.779 18.552 30.951 0 60.737-6.766 81.87-18.623l245.81-136.252c19.757-10.943 38.049-29.355 52.826-50.768l-380.506-220.441-380.637 220.28c14.858 21.484 33.129 39.956 52.917 50.919zM152.325 157.816c-47.124 26.122-87.060 93.706-87.060 147.546v260.538c0 15.119 3.453 31.292 8.955 47.375l378.207-218.845v-388.769c-20.45 2.53-39.645 7.71-54.312 15.902l-245.79 136.252zM561.764 21.444c-14.557-8.142-33.672-13.252-54.101-15.782v388.759l378.077 218.985c5.612-16.113 9.015-32.356 9.015-47.506l0.050-215.923c-2.168 1.074-4.538 1.727-6.746 2.691-2.911 1.295-5.933 2.429-8.965 3.624-8.292 3.172-16.816 5.823-25.57 7.921-4.377 1.134-8.684 2.309-13.202 3.172-8.192 1.416-16.555 2.058-24.978 2.55-4.357 0.271-8.573 1.295-13.061 1.295-17.368 0-34.525-2.921-51.29-7.178-0.261-0.060-0.592-0.161-0.863-0.211-8.905-2.309-17.689-5.020-26.212-8.473-2.801-1.074-5.461-2.429-8.152-3.604-6.475-2.921-12.89-5.722-19.034-9.236-9.296-5.271-18.281-11.113-26.704-17.86-50.537-40.016-79.501-100.211-79.501-165.215 0-9.608 0.693-19.155 1.928-28.592 0.321-2.098 0.914-4.156 1.295-6.254 1.185-7.299 2.54-14.567 4.467-21.645 0.602-2.158 1.506-4.136 2.219-6.295 2.158-6.867 4.377-13.643 7.238-20.239 1.275-3.022 3.012-5.823 4.477-8.784 2.369-4.859 4.518-9.768 7.278-14.356l-57.665-31.844zM935.856 78.587c-7.981-13.704-18.492-26.152-30.961-36.683-27.939-25.138-64.341-38.942-102.601-38.942-55.507 0-105.522 28.311-133.943 76.178-14.778 23.944-22.598 51.722-22.598 80.314 0 47.997 21.363 92.451 58.649 122.017 43.299 34.475 101.496 42.295 151.311 24.486 0.683-0.271 1.486-0.371 2.259-0.703 5.983-2.219 11.645-5.23 17.358-8.192 3.012-1.606 6.104-3.142 9.015-4.899 4.899-3.022 9.527-6.586 14.175-10.2 36.372-28.702 60.205-72.664 60.205-122.509 0.010-28.652-7.75-56.44-22.869-80.866zM842.109 159.875l27.999 27.879c10.842 10.782 10.842 28.27 0.11 39.063-10.792 10.903-28.27 10.782-39.063 0.1l-28.21-28.040-29.515 29.395c-10.792 10.682-28.26 10.802-39.053-0.1-10.732-10.782-10.732-28.27 0.12-39.063l29.274-29.174-30.258-30.158c-10.852-10.782-10.852-28.27-0.1-39.063 5.391-5.451 12.509-8.142 19.566-8.142 7.078 0 14.075 2.691 19.486 8.041l30.469 30.318 29.064-28.983c5.411-5.331 12.408-8.041 19.486-8.041 7.058 0 14.175 2.711 19.566 8.162 10.752 10.782 10.752 28.27-0.1 39.063l-28.843 28.742z" />
<glyph unicode="&#xe943;" glyph-name="cash-on-delivery" d="M751.034 865.451h-478.067c-169.552 0-262.927-93.365-262.927-262.927v-334.647c0-169.562 93.375-262.927 262.927-262.927h478.067c169.562 0 262.927 93.375 262.927 262.927v334.647c0 169.562-93.375 262.927-262.927 262.927zM966.154 602.524h-23.903c-129.787 0-167.324 37.527-167.324 167.314v46.221c126.384-8.122 191.227-79.27 191.227-213.534zM249.073 816.058v-46.221c0-129.787-37.537-167.314-167.324-167.314h-23.903c0 134.264 64.843 205.412 191.227 213.534zM57.846 267.876h23.903c129.787 0 167.324-37.527 167.324-167.314v-46.221c-126.384 8.122-191.227 79.27-191.227 213.534zM296.87 52.746v47.817c0 156.813-58.308 215.13-215.13 215.13h-23.893v239.014h23.903c156.823 0 215.13 58.318 215.13 215.13v47.817h430.251v-47.817c0-156.813 58.308-215.13 215.13-215.13h23.903v-239.024h-23.903c-156.823 0-215.13-58.318-215.13-215.13v-47.817h-430.261zM774.927 54.332v46.221c0 129.787 37.537 167.314 167.324 167.314h23.903c0-134.254-64.843-205.402-191.227-213.534zM512 602.524c-92.25 0-167.324-75.073-167.324-167.324s75.073-167.324 167.324-167.324 167.314 75.073 167.314 167.324-75.063 167.324-167.314 167.324zM512 315.693c-65.917 0-119.507 53.589-119.507 119.507s53.589 119.507 119.507 119.507 119.507-53.589 119.507-119.507-53.589-119.507-119.507-119.507z" />
<glyph unicode="&#xe944;" glyph-name="wallet-checked" d="M303.214 199.68c-8.553 9.186-22.899 9.808-32.256 1.255l-81.057-75.003-29.686 29.626c-8.905 8.925-23.351 8.925-32.256 0-8.925-8.915-8.925-23.351 0-32.256l45.176-45.146c4.457-4.457 10.29-6.686 16.133-6.686 5.572 0 11.093 2.008 15.511 6.064l97.2 89.891c9.216 8.553 9.808 22.99 1.235 32.256zM817.433 703.92c-5.783 37.707-23.080 72.824-50.668 100.001l-79.982 80.876c-69.12 68.678-189.39 68.718-258.61-0.090l-148.249-148.701c-10.17-10.17-17.96-20.721-24.556-31.513-121.525-20.5-199.7-115.28-199.7-245.629v-191.93c-28.12-35.167-45.628-79.109-45.628-127.498 0-37.657 10.33-74.28 29.686-105.703 36.593-61.45 103.876-99.639 175.666-99.639 47.275 0 92.421 16.846 128.291 45.628h419.298c150.136 0 250.98 100.844 250.98 250.98v228.161c0 129.767-77.222 223.764-196.528 245.057zM968.333 276.329h-114.076c-37.747 0-68.447 30.71-68.447 68.447s30.71 68.447 68.447 68.447h114.076v-136.895zM460.439 852.45c51.873 51.471 142.426 51.381 194.028 0.141l80.083-80.966c17.87-17.609 30.037-38.641 35.88-61.811-2.59 0.050-5.090 0.050-7.409 0.050-0.040 0-0.040 0-0.040 0h-444.697l142.155 142.587zM78.768 57.394c-15.119 24.466-23.1 52.856-23.1 82.040 0 41.843 16.535 79.681 42.958 108.193 4.949 5.301 10.391 10.069 15.962 14.617 2.841 2.359 5.532 4.899 8.553 7.088 6.154 4.367 12.75 7.931 19.436 11.405 2.901 1.516 5.622 3.353 8.604 4.688 7.74 3.433 15.902 5.833 24.094 7.981 2.369 0.622 4.548 1.687 6.957 2.179 10.822 2.309 21.926 3.564 33.16 3.564 88.054 0 159.704-71.66 159.704-159.714 0-21.885-4.488-43.309-13.181-63.187-2.891-6.596-6.244-12.971-10.069-19.165-0.351-0.632-0.843-1.205-1.255-1.837-3.604-5.923-7.61-11.666-12.017-17.016-0.984-1.195-2.058-2.229-3.042-3.383-4.628-5.301-9.527-10.381-14.798-14.798-0.181-0.181-0.221-0.452-0.402-0.632-28.471-25.229-65.235-39.705-104.94-39.705-56.601 0.010-107.63 28.933-136.624 77.683zM762.98 25.349h-377.093c1.747 2.64 3.393 5.351 5 8.072 19.506 31.734 29.857 68.367 29.857 106.024 0 113.232-92.11 205.342-205.342 205.342-12.479 0-24.686-1.506-36.814-3.694-3.835-0.713-7.529-1.697-11.324-2.58-8.373-2.058-16.565-4.598-24.586-7.67-3.564-1.385-7.178-2.59-10.662-4.146-10.662-4.728-20.992-10.12-30.7-16.615v148.781c0 111.857 65.586 189.52 171.781 202.893 10.782 1.606 21.926 2.45 33.551 2.45h456.242c0.622 0 1.165-0.090 1.787-0.141 9.979 0 19.607-0.301 29.907-1.998 107.169-12.479 173.759-90.333 173.759-203.204h-114.086c-62.936 0-114.086-51.17-114.086-114.086s51.15-114.076 114.086-114.076h114.076c0-124.737-80.615-205.352-205.352-205.352z" />
<glyph unicode="&#xe945;" glyph-name="copy" d="M763.984 393.326l-298.536 298.436c-0.331 0.331-0.883 0.331-1.215 0.663-3.213 2.921-7.208 4.859-11.525 6.134-1.335 0.331-2.429 0.552-3.765 0.723-1.335 0.161-2.44 0.783-3.825 0.783h-141.864c-205.553 0.010-293.215-87.683-293.215-293.205v-179.672c0-205.533 87.662-293.256 293.215-293.256h179.652c205.553 0 293.215 87.723 293.215 293.256v134.726c0.612 2.329 1.436 4.588 1.436 7.138-0.010 10.26-5.431 19.295-13.573 24.275zM473.761 603.186l205.814-205.764h-82.904c-97.641 0-122.91 25.279-122.91 122.92v82.844zM482.906-9.316h-179.652c-174.572 0-236.474 61.902-236.474 236.514v179.662c0 174.572 61.902 236.454 236.474 236.454h113.764v-122.96c0-129.295 50.377-179.662 179.662-179.662h122.699v-113.503c-0.010-172.393-64.070-236.504-236.474-236.504zM1013.961 624.369c0 10.25-5.431 19.275-13.573 24.275l-279.582 279.512c-7.7 7.7-19.064 9.758-29.254 6.305-3.152 1.175-6.435 1.998-9.979 1.998h-264.553c-93.887 0-170.235-76.348-170.235-170.235 0-15.691 12.69-28.371 28.371-28.371s28.371 12.69 28.371 28.371c0 62.564 50.919 113.493 113.493 113.493h255.357v-113.493c0-122.529 47.716-170.235 170.235-170.235h113.393v-264.333c0-57.585-46.883-104.468-104.518-104.468-15.681 0-28.371-12.69-28.371-28.371s12.7-28.371 28.371-28.371c88.947 0 161.26 72.312 161.26 161.22v286.66c0.442 1.998 1.215 3.885 1.215 6.044zM842.611 652.74c-91.206 0-113.493 22.277-113.493 113.493v73.377l186.86-186.87h-73.367z" />
<glyph unicode="&#xe946;" glyph-name="minus" d="M1013.961 435.2c0-42.717-34.515-77.222-77.222-77.222h-849.478c-42.707 0-77.222 34.505-77.222 77.222s34.515 77.222 77.222 77.222h849.468c42.727 0 77.232-34.505 77.232-77.222z" />
<glyph unicode="&#xe947;" glyph-name="plus" d="M589.222 859.939c0 42.707-34.505 77.222-77.222 77.222s-77.222-34.515-77.222-77.222v-347.507h-347.517c-42.707-0.010-77.222-34.515-77.222-77.232s34.515-77.222 77.222-77.222h347.507v-347.507c0-42.717 34.515-77.222 77.222-77.222s77.222 34.515 77.222 77.222v347.507h347.507c42.717 0 77.222 34.515 77.222 77.222s-34.515 77.222-77.222 77.222h-347.497v347.517z" />
<glyph unicode="&#xe948;" glyph-name="info-3" d="M512.612-65.616c-29.184 0-56.651 9.828-77.282 27.748l-74.872 63.96c-9.075 7.58-29.967 15.229-41.884 15.229h-83.135c-65.717 0-119.155 53.479-119.155 119.196v81.157c0 12.318-7.299 32.778-14.687 41.352l-64.211 75.656c-36.442 43.329-36.442 111.054-0.080 154.273l64.11 75.585c7.61 9.045 14.858 29.254 14.858 41.502v80.213c0 65.727 53.439 119.206 119.155 119.206h82.131c12.127 0 32.658 7.539 42.245 15.47l75.154 64.321c42.436 35.78 113.935 35.599 155.136-0.151l74.872-63.92c9.266-7.75 29.967-15.26 42.396-15.26h80.685c65.757 0 119.246-53.449 119.246-119.176v-80.715c0-12.168 7.489-32.668 15.43-42.175l63.88-74.732c36.553-43.389 36.432-112.921-0.141-155.126l-63.96-74.872c-7.75-9.226-15.219-29.686-15.219-41.894v-80.725c0-65.717-53.489-119.196-119.246-119.196h-80.675c-12.127 0-32.627-7.499-42.145-15.44l-74.762-63.88c-21.183-17.84-48.781-27.608-77.844-27.608zM235.43 774.325c-35.318 0-64.030-28.742-64.030-64.070v-80.213c0-24.988-11.947-58.117-27.819-77.031l-64.151-75.625c-18.914-22.468-18.914-60.547 0.070-83.125l63.96-75.384c15.832-18.332 27.929-51.612 27.929-77.202v-81.157c0-35.318 28.712-64.070 64.030-64.070h83.135c24.837 0 58.137-12.127 77.453-28.21l75.274-64.321c21.273-18.452 61.701-18.231 83.486 0.11l74.862 64c19.888 16.535 52.455 28.421 77.714 28.421h80.685c35.358 0 64.11 28.752 64.11 64.070v80.725c0 24.978 12.168 58.298 28.24 77.503l64.281 75.224c19.356 22.337 19.235 60.516-0.1 83.486l-64 74.842c-16.545 19.848-28.431 52.445-28.431 77.744v80.715c0 35.328-28.742 64.040-64.11 64.040h-80.655c-25.168 0-58.689 12.168-78.005 28.28l-75.224 64.241c-21.394 18.603-61.741 18.271-83.486-0.11l-75.314-64.422c-19.948-16.585-52.545-28.471-77.774-28.471h-82.131zM512.392 361.773c-15.219 0-27.568 12.348-27.568 27.568v229.316c0 15.219 12.348 27.568 27.568 27.568s27.568-12.348 27.568-27.568v-229.326c0-15.209-12.348-27.558-27.568-27.558zM512.532 208.284c-20.309 0-36.964 16.444-36.964 36.754 0 20.319 16.213 36.754 36.533 36.754h0.432c20.309 0 36.754-16.434 36.754-36.754 0-20.309-16.444-36.754-36.754-36.754z" />
<glyph unicode="&#xe949;" glyph-name="orders-fill" d="M718.677 538.112l74.049 39.645 87.090 47.204c23.020 12.539 37.527 37.165 37.527 64.211 0 27.166-14.507 51.722-37.527 64.271l-314.79 170.145c-33.039 18.091-73.065 18.091-106.094 0l-137.678-74.26-78.537-42.737-98.575-53.148c-23.020-12.549-37.537-37.105-37.537-64.271 0-27.036 14.517-51.662 37.537-64.211l314.78-170.205c16.525-9.005 34.545-13.513 53.017-13.513 18.583 0 36.563 4.498 53.077 13.513l153.66 83.356zM406.879 395.565l-292.744 146.552c-22.528 11.565-48.58 10.049-70.074-3.052-21.514-13.031-34.023-36.061-34.023-61.159v-277.604c0-48.218 26.493-91.377 69.602-112.921l292.733-146.593c9.969-5.050 21.022-7.549 32.015-7.549 13.041 0 26.042 3.544 37.527 11.033 21.544 13.101 34.063 36.141 34.063 61.229v277.604c0.492 47.696-26.052 90.815-69.1 112.459zM979.948 539.136c-21.554 13.573-47.606 14.557-70.084 2.992l-292.744-146.522c-43.108-21.614-69.602-64.803-69.602-112.951v-277.102c0-25.108 13.001-48.188 34.023-61.229 12.017-7.549 25.018-11.083 38.019-11.083 11.053 0 22.036 2.56 32.055 7.549l292.754 147.054c43.048 21.574 69.592 64.803 69.592 112.459v277.604c0 25.098-13.001 48.188-34.013 61.229z" />
</font>
</defs>
</svg>
